<?xml version="1.0" standalone="no"?>
<!DOCTYPE svg PUBLIC "-//W3C//DTD SVG 1.1//EN" "http://www.w3.org/Graphics/SVG/1.1/DTD/svg11.dtd" >
<svg xmlns="http://www.w3.org/2000/svg">
<metadata>
This is a custom SVG webfont generated by Font Squirrel.
Copyright   :  2005 Microsoft Corporation All Rights Reserved
Designer    : Lucas de Groot
Foundry     : Microsoft Corporation
Foundry URL : httpwwwmicrosoftcomtypographyctfonts
</metadata>
<defs>
<font id="ConsolasRegular" horiz-adv-x="1126" >
<font-face units-per-em="2048" ascent="1521" descent="-527" />
<missing-glyph horiz-adv-x="500" />
<glyph unicode=" " />
<glyph unicode="!" d="M428 113q0 27 10.5 51.5t28.5 42.5t42 28.5t52 10.5q27 0 51 -10.5t41.5 -28.5t28 -42.5t10.5 -51.5t-10.5 -51t-28 -41.5t-41.5 -28t-51 -10.5q-28 0 -52 10.5t-42 28t-28.5 41.5t-10.5 51zM455 1413h211l-27 -1030h-154z" />
<glyph unicode="&#x22;" d="M258 1413h221l-28 -469h-164zM647 1413h221l-28 -469h-164z" />
<glyph unicode="#" d="M43 367v130h226l36 350h-211v130h224l34 330h146l-33 -330h256l34 330h148l-35 -330h215v-130h-228l-35 -350h210v-130h-223l-37 -367h-148l37 367h-255l-37 -367h-148l37 367h-213zM417 497h256l35 350h-256z" />
<glyph unicode="$" d="M111 45v166q63 -22 137.5 -36t165.5 -19l59 450q-65 25 -128 54t-112.5 69.5t-80.5 95.5t-31 131q0 62 26 122.5t81 109t139 80t200 37.5l25 190h145l-26 -195q52 -5 104.5 -13t97.5 -19v-154q-55 14 -111 24t-110 15l-57 -428q67 -26 133 -56.5t118.5 -72t85 -98.5 t32.5 -136q0 -84 -34 -149t-95 -110t-147 -70.5t-189 -30.5l-33 -238h-146l33 238q-81 6 -154.5 17.5t-127.5 25.5zM307 975q0 -69 47.5 -113.5t141.5 -81.5l51 375q-125 -11 -182.5 -58.5t-57.5 -121.5zM559 156q135 10 196.5 60t61.5 136q0 36 -13 64.5t-39 51.5t-64.5 43 t-90.5 40z" />
<glyph unicode="%" d="M20 0l920 1413h166l-922 -1413h-164zM37 1124q0 64 19 119.5t54.5 96.5t86 64t112.5 23q61 0 109.5 -19t83 -56t53 -92t18.5 -127q0 -65 -19 -120.5t-54.5 -96t-86 -64t-112.5 -23.5q-61 0 -109.5 19t-83 56.5t-53 92.5t-18.5 127zM184 1128q0 -88 32 -130t89 -42 q29 0 51.5 13t38 36t23.5 54.5t8 68.5q0 88 -32 130t-89 42q-29 0 -51.5 -13t-38 -36t-23.5 -54.5t-8 -68.5zM553 281q0 64 19 119.5t54.5 96.5t86 64t112.5 23q61 0 110 -19t83.5 -56.5t53 -92.5t18.5 -127q0 -65 -19.5 -120t-55 -96t-86 -64t-112.5 -23q-61 0 -109.5 19 t-83 56t-53 92.5t-18.5 127.5zM700 285q0 -88 32 -130t89 -42q29 0 51.5 13t38.5 36t24 54.5t8 68.5q0 88 -32.5 130t-89.5 42q-29 0 -51.5 -13t-38 -36t-23.5 -54.5t-8 -68.5z" />
<glyph unicode="&#x26;" d="M57 352q0 76 20 135.5t54 106t78.5 82t93.5 65.5l-22 31q-56 69 -83.5 140t-27.5 139q0 72 23 133t67.5 105.5t110 69.5t149.5 25q81 0 142 -23t102 -63t61.5 -92.5t20.5 -111.5q0 -75 -25.5 -131.5t-67 -100t-95 -77.5t-109.5 -66l258 -322q44 118 41 285h176 q0 -131 -26 -238t-74 -192l202 -252h-231l-88 109q-71 -60 -158.5 -91.5t-189.5 -31.5q-97 0 -172 27t-126 75.5t-77.5 115.5t-26.5 148zM238 373q0 -53 17 -97t48.5 -75.5t77 -48.5t102.5 -17q130 0 228 96l-318 398q-34 -23 -62.5 -49t-49 -57t-32 -68t-11.5 -82z M350 1067q0 -54 20 -100.5t64 -102.5l27 -35q43 24 81 48.5t66.5 54t45 65t16.5 80.5q0 75 -42 117.5t-114 42.5q-40 0 -70.5 -13t-51.5 -36t-31.5 -54t-10.5 -67z" />
<glyph unicode="'" d="M449 1413h229l-29 -469h-172z" />
<glyph unicode="(" d="M300 524q0 121 24.5 241.5t79 241.5t144 242t217.5 240l101 -103q-388 -383 -388 -849q0 -232 98 -446t290 -404l-105 -107q-461 427 -461 944z" />
<glyph unicode=")" d="M260 -317q195 193 291 403t96 440q0 476 -387 856l105 107q461 -427 461 -950q0 -108 -22 -224t-75 -237.5t-142.5 -246.5t-225.5 -251z" />
<glyph unicode="*" d="M164 838l307 151l-307 154l69 117l283 -189l-24 342h143l-25 -342l283 191l70 -123l-308 -152l306 -147l-68 -119l-281 186l23 -342h-143l22 342l-287 -186z" />
<glyph unicode="+" d="M84 469v152h393v405h172v-405h393v-152h-393v-408h-172v408h-393z" />
<glyph unicode="," d="M238 -205q51 -2 99 9t84.5 32.5t58.5 53.5t22 73q0 42 -14.5 68t-32.5 48t-32.5 47t-14.5 67q0 21 8 44t24.5 42t42 31t60.5 12t67.5 -14.5t57 -44.5t39 -75t14.5 -106q0 -83 -30.5 -159.5t-91 -135.5t-151 -94t-210.5 -35v137z" />
<glyph unicode="-" d="M264 463v164h598v-164h-598z" />
<glyph unicode="." d="M389 147q0 35 13 65.5t35.5 53.5t52.5 36t65 13q34 0 64.5 -13t53 -36t35.5 -53.5t13 -65.5q0 -34 -13 -64t-35.5 -52.5t-53 -35.5t-64.5 -13q-35 0 -65 13t-52.5 35.5t-35.5 52.5t-13 64z" />
<glyph unicode="/" d="M115 -215l686 1628h166l-686 -1628h-166z" />
<glyph unicode="0" d="M88 653q0 150 30.5 274t91 212.5t151.5 137t212 48.5q105 0 191 -39.5t147 -122t94 -209.5t33 -301q0 -150 -30 -273.5t-91 -212t-151.5 -137t-212.5 -48.5q-105 0 -191 39.5t-147 121.5t-94 209t-33 301zM264 659q0 -31 0.5 -62t3.5 -60l553 409q-15 51 -38 93t-55 72.5 t-73 47.5t-92 17q-68 0 -123.5 -33t-94.5 -98.5t-60 -162t-21 -223.5zM301 369q15 -52 38 -96t55.5 -75.5t74 -49t94.5 -17.5q68 0 123.5 33t94.5 98t60 161.5t21 223.5q0 34 -2.5 67.5t-5.5 65.5z" />
<glyph unicode="1" d="M135 1094l416 219h154v-1151h292v-162h-821v162h336v954l-313 -170z" />
<glyph unicode="2" d="M147 0v156l338 336q83 82 135 142t81 109.5t39 93.5t10 95q0 48 -13 91.5t-40 76.5t-70 52t-103 19q-83 0 -151 -37t-125 -96l-96 115q74 78 170.5 125t224.5 47q87 0 158.5 -26t123.5 -75t80.5 -120t28.5 -160q0 -75 -20 -139t-60.5 -127.5t-102 -131.5t-145.5 -149 l-237 -231h635v-166h-861z" />
<glyph unicode="3" d="M164 0v156q62 -11 131 -17t141 -6q98 0 167.5 17.5t113.5 50.5t64 80t20 106q0 54 -24 94t-67.5 67t-104 40.5t-132.5 13.5h-149v143h151q59 0 107.5 15.5t83 44.5t53 71.5t18.5 96.5q0 105 -64 153t-188 48q-66 0 -136 -13t-150 -39v152q34 12 72.5 21.5t77 16t76.5 10 t73 3.5q104 0 183 -22.5t132 -64.5t80 -102t27 -135q0 -112 -57.5 -188t-157.5 -121q51 -8 100.5 -32t89 -61.5t64 -88.5t24.5 -113q0 -86 -35 -161.5t-105 -132t-176 -89t-247 -32.5q-78 0 -140 5t-116 13z" />
<glyph unicode="4" d="M43 289v153l557 865h250v-865h223v-153h-223v-289h-178v289h-629zM217 442h455v697z" />
<glyph unicode="5" d="M178 0v158q54 -13 123.5 -19t140.5 -6q80 0 144 19t109 54.5t69 86t24 113.5q0 122 -87.5 177.5t-251.5 55.5h-248v668h704v-152h-540v-367h114q94 0 183 -17t158.5 -59.5t112 -114t42.5 -179.5q0 -97 -42 -177t-115.5 -137.5t-173.5 -89.5t-216 -32q-29 0 -62.5 1.5 t-66.5 4t-64.5 5.5t-56.5 7z" />
<glyph unicode="6" d="M123 561q0 100 13 194t43 177t80 152t124.5 118.5t175.5 77t234 27.5h129v-152h-140q-117 0 -203 -28t-144 -79t-89 -123t-39 -161l-4 -41q63 37 145.5 59.5t178.5 22.5q99 0 173.5 -29t124 -80.5t74.5 -123.5t25 -158q0 -90 -32.5 -169t-92.5 -137.5t-144.5 -92 t-187.5 -33.5q-108 0 -191 34.5t-139 106t-85 180.5t-29 258zM303 575q0 -129 18 -215.5t53.5 -138.5t87.5 -74t120 -22q57 0 104.5 18.5t82 54.5t54 87.5t19.5 117.5q0 60 -14.5 108.5t-45.5 82t-78.5 52t-113.5 18.5q-38 0 -77 -7t-76.5 -19.5t-71.5 -28.5t-62 -34z" />
<glyph unicode="7" d="M117 1145v162h884v-162l-548 -1145h-199l569 1145h-706z" />
<glyph unicode="8" d="M119 305q0 120 67 207t207 158q-128 65 -187 144.5t-59 182.5q0 63 26 122t78.5 105t131.5 73.5t186 27.5q101 0 177.5 -21.5t128.5 -61.5t78 -97t26 -127q0 -114 -63.5 -194t-180.5 -140q58 -29 108 -64t87 -78t57.5 -96t20.5 -118q0 -83 -34 -147.5t-95 -108.5 t-144 -67t-180 -23q-107 0 -188.5 24t-136.5 67t-83 102t-28 130zM307 317q0 -45 19.5 -79.5t53.5 -58.5t81 -36t102 -12q53 0 100 11t81.5 33.5t54.5 57t20 82.5q0 37 -12 72t-43 69t-83 68t-132 70q-68 -33 -114.5 -65.5t-75 -66t-40.5 -69.5t-12 -76zM326 1008 q0 -39 15 -72t46.5 -62t78.5 -57t112 -57q113 53 168 110.5t55 133.5q0 89 -62.5 132.5t-175.5 43.5q-112 0 -174.5 -43t-62.5 -129z" />
<glyph unicode="9" d="M100 891q0 91 33 170t92.5 137.5t142.5 92.5t183 34q97 0 179.5 -32t142.5 -103.5t94 -185.5t34 -277q0 -191 -46 -328.5t-136 -226t-223 -130.5t-307 -42h-109v152h121q129 0 223 26t156.5 76.5t95.5 123t41 165.5l4 41q-63 -37 -145 -59.5t-178 -22.5q-99 0 -174 29 t-124.5 81t-74.5 123.5t-25 155.5zM283 903q0 -61 14.5 -109t45 -81.5t78.5 -51.5t114 -18q37 0 76.5 7t77 19t71.5 28t61 34q0 129 -19 215.5t-55 139t-87.5 74.5t-116.5 22q-56 0 -103.5 -18.5t-82 -54t-54.5 -87.5t-20 -119z" />
<glyph unicode=":" d="M410 135q0 31 12 59t33 49t48.5 33.5t59.5 12.5q31 0 59 -12.5t49 -33.5t33.5 -49t12.5 -59q0 -32 -12.5 -59.5t-33.5 -48.5t-49 -33t-59 -12q-32 0 -59.5 12t-48.5 33t-33 48.5t-12 59.5zM410 868q0 31 12 59t33 49t48.5 33.5t59.5 12.5q31 0 59 -12.5t49 -33.5 t33.5 -49t12.5 -59q0 -32 -12.5 -59.5t-33.5 -48.5t-49 -33t-59 -12q-32 0 -59.5 12t-48.5 33t-33 48.5t-12 59.5z" />
<glyph unicode=";" d="M250 -205q51 -2 99 9t84.5 32.5t58.5 53.5t22 73q0 42 -14.5 68t-32.5 48t-32.5 47t-14.5 67q0 21 8 44t24.5 42t42 31t60.5 12t67.5 -14.5t57 -44.5t39 -75t14.5 -106q0 -83 -30.5 -159.5t-91 -135.5t-151 -94t-210.5 -35v137zM410 868q0 31 12 59t33 49t48.5 33.5 t59.5 12.5q31 0 59 -12.5t49 -33.5t33.5 -49t12.5 -59q0 -32 -12.5 -59.5t-33.5 -48.5t-49 -33t-59 -12q-32 0 -59.5 12t-48.5 33t-33 48.5t-12 59.5z" />
<glyph unicode="&#x3c;" d="M137 545l672 561l109 -111l-545 -448l545 -453l-109 -110z" />
<glyph unicode="=" d="M133 298v147h860v-147h-860zM133 646v147h860v-147h-860z" />
<glyph unicode="&#x3e;" d="M209 94l545 449l-545 452l108 111l672 -561l-672 -561z" />
<glyph unicode="?" d="M303 1257v156h27q101 0 184.5 -19t149 -51.5t114 -76.5t81 -93t48 -101.5t15.5 -102.5q0 -162 -90 -245.5t-261 -94.5l-8 -246h-149l-13 383h117q61 0 102 13t66 37t36 58.5t11 77.5q0 73 -30 130t-84 96t-128.5 59t-162.5 20h-25zM356 113q0 27 10 51.5t28 42.5t42 28.5 t51 10.5q28 0 52 -10.5t41.5 -28.5t27.5 -42.5t10 -51.5t-10 -51t-27.5 -41.5t-41.5 -28t-52 -10.5q-27 0 -51 10.5t-42 28t-28 41.5t-10 51z" />
<glyph unicode="@" d="M10 344q-1 151 20 289.5t60.5 258.5t96 218.5t128 168t155.5 108t179 38.5q119 0 206.5 -48.5t144.5 -140t84.5 -224.5t27.5 -303q-1 -172 -22.5 -294.5t-60.5 -200.5t-94.5 -114.5t-123.5 -36.5q-78 0 -116 40t-38 108q-38 -77 -82 -112.5t-106 -35.5q-94 0 -141 70.5 t-47 222.5q0 55 6.5 118t22 126.5t40.5 122t61.5 103t86.5 71.5t114 27q38 0 71 -9t48 -18l129 31l-80 -520q-9 -64 -10 -106t5.5 -66t20.5 -33.5t35 -9.5q28 0 53 29.5t44.5 91t31 155.5t11.5 223q0 144 -18 257t-57 192t-101.5 120.5t-151.5 41.5q-68 0 -131.5 -34.5 t-118 -97t-99 -150t-76 -193.5t-49 -228t-17.5 -254q0 -322 97 -480.5t273 -158.5q89 0 166 20.5t160 61.5v-129q-82 -38 -164 -57t-172 -19q-255 0 -377.5 191t-124.5 569zM440 373q0 -96 12 -138t46 -42q12 0 24 5t25.5 19.5t29.5 40.5t35 68l66 438q-9 12 -27.5 21.5 t-46.5 9.5q-30 0 -54 -21t-42.5 -56t-31 -79.5t-21 -91.5t-12 -92.5t-3.5 -81.5z" />
<glyph unicode="A" d="M10 0l434 1307h244l428 -1307h-194l-91 285h-544l-92 -285h-185zM338 444h442l-221 699z" />
<glyph unicode="B" d="M158 0v1307h374q437 0 437 -318q0 -106 -50.5 -182t-164.5 -113q53 -10 100.5 -34t83.5 -62t57 -90t21 -117q0 -94 -36.5 -166.5t-104 -122.5t-163 -76t-212.5 -26h-342zM336 150h188q153 0 228 57t75 178q0 50 -21 90t-61 67.5t-97.5 42.5t-129.5 15h-182v-450zM336 748 h178q61 0 110.5 13t85 40t55 67.5t19.5 96.5q0 40 -12 75.5t-42 61t-81 40.5t-129 15h-184v-409z" />
<glyph unicode="C" d="M92 639q0 157 41 284t117 215.5t184 136.5t242 48q91 0 169 -15.5t150 -47.5v-175q-71 39 -147 59.5t-166 20.5q-92 0 -166.5 -34.5t-126.5 -100t-80 -160t-28 -215.5q0 -254 103 -383t302 -129q84 0 161 19.5t148 54.5v-168q-157 -65 -329 -65q-277 0 -425.5 165.5 t-148.5 489.5z" />
<glyph unicode="D" d="M109 0v1307h337q306 0 456.5 -157.5t150.5 -481.5q0 -94 -14.5 -180t-46.5 -160t-83 -134.5t-125 -103.5t-172 -66.5t-223 -23.5h-280zM287 154h133q446 0 446 501q0 139 -26 235t-79 155t-133 85.5t-188 26.5h-153v-1003z" />
<glyph unicode="E" d="M201 0v1307h743v-150h-565v-405h543v-150h-543v-450h565v-152h-743z" />
<glyph unicode="F" d="M205 0v1307h737v-152h-555v-424h526v-149h-526v-582h-182z" />
<glyph unicode="G" d="M66 639q0 161 45 288.5t126.5 216t196 135t252.5 46.5q88 0 167.5 -15.5t152.5 -49.5v-177q-73 39 -150 60.5t-168 21.5q-104 0 -185 -37t-136.5 -104.5t-85 -162.5t-29.5 -210q0 -120 24 -215t75 -161t130.5 -101t190.5 -35q19 0 41 2t44 5.5t42.5 8.5t36.5 11v416h-267 v147h443v-668q-41 -19 -86.5 -34t-93 -25t-94.5 -15t-91 -5q-134 0 -241.5 42t-183 124.5t-116 205.5t-40.5 285z" />
<glyph unicode="H" d="M111 0v1307h178v-553h549v553h178v-1307h-178v600h-549v-600h-178z" />
<glyph unicode="I" d="M172 0v152h301v1005h-301v150h782v-150h-301v-1005h301v-152h-782z" />
<glyph unicode="J" d="M182 59v179q62 -45 137.5 -71t149.5 -26q109 0 168 66.5t59 191.5v754h-497v154h678v-908q0 -84 -25 -159.5t-76 -131.5t-128 -89t-181 -33q-39 0 -79.5 5.5t-78 15t-70.5 23t-57 29.5z" />
<glyph unicode="K" d="M156 0v1307h178v-607l479 607h211l-516 -621l539 -686h-224l-489 641v-641h-178z" />
<glyph unicode="L" d="M233 0v1307h181v-1155h571v-152h-752z" />
<glyph unicode="M" d="M49 0l64 1307h211l176 -492l57 -166l55 166l185 492h217l63 -1307h-174l-26 815l-11 313l-61 -182l-193 -520h-123l-184 500l-61 202l-4 -327l-23 -801h-168z" />
<glyph unicode="N" d="M119 0v1307h229l363 -772l131 -299v700v371h166v-1307h-232l-381 815l-110 262v-659v-418h-166z" />
<glyph unicode="O" d="M57 647q0 174 41 302t111.5 211.5t164.5 124t199 40.5q126 0 219.5 -46t155.5 -131.5t92.5 -208.5t30.5 -277q0 -176 -41.5 -304t-112 -211.5t-165 -124t-199.5 -40.5q-126 0 -219.5 45.5t-155 131.5t-91.5 209.5t-30 278.5zM242 657q0 -116 18 -211.5t56.5 -164 t99.5 -106.5t147 -38q84 0 145 40.5t100.5 110t58.5 162.5t19 199q0 115 -17.5 210.5t-56.5 164.5t-100.5 107t-148.5 38q-84 0 -144.5 -40.5t-99.5 -110t-58 -163t-19 -198.5z" />
<glyph unicode="P" d="M158 0v1307h368q97 0 186 -21.5t156.5 -69.5t107.5 -124t40 -185q0 -80 -30 -158.5t-93 -140.5t-161 -100.5t-234 -38.5h-162v-469h-178zM336 621h166q158 0 243.5 69t85.5 209q0 126 -82.5 193t-230.5 67h-182v-538z" />
<glyph unicode="Q" d="M57 637q0 178 41 308t111.5 214.5t164.5 125t199 40.5q126 0 219.5 -45.5t155.5 -131t92.5 -207t30.5 -273.5q0 -160 -34 -280.5t-93 -204.5t-139 -132t-172 -63q15 -88 70 -141.5t155 -53.5q48 0 94.5 16t94.5 54l79 -123q-66 -54 -136 -77t-144 -23q-80 0 -147 22 t-116.5 65.5t-79.5 109t-36 151.5q-104 15 -181 66t-128 134.5t-76 197t-25 251.5zM242 664q0 -119 18 -215.5t56.5 -165.5t99.5 -106.5t147 -37.5q84 0 145 40t100.5 109t58.5 161.5t19 197.5q0 116 -17.5 211.5t-56.5 164t-100.5 106.5t-148.5 38q-84 0 -144.5 -40 t-99.5 -108.5t-58 -160t-19 -194.5z" />
<glyph unicode="R" d="M170 0v1307h350q114 0 196 -25t134.5 -70t77 -108.5t24.5 -140.5q0 -61 -18 -115.5t-53.5 -99t-88 -77t-120.5 -48.5q55 -19 93.5 -66.5t78.5 -126.5l207 -430h-201l-195 418q-22 48 -45 79.5t-49.5 50t-58 26.5t-70.5 8h-84v-582h-178zM348 725h144q63 0 113.5 14.5 t86 43t55 70t19.5 95.5q0 105 -65.5 157t-184.5 52h-168v-432z" />
<glyph unicode="S" d="M111 27v172q75 -28 168.5 -44t212.5 -16q86 0 146.5 13.5t99 40t56 64.5t17.5 87q0 53 -29.5 90.5t-77.5 67t-109.5 54t-125.5 50.5t-125.5 56.5t-109.5 72t-77.5 97.5t-29.5 133q0 67 28 132t87 115.5t151.5 81.5t220.5 31q33 0 71.5 -3t78 -8.5t78 -12.5t71.5 -15v-160 q-77 22 -154 33.5t-149 11.5q-153 0 -225 -51t-72 -137q0 -53 29.5 -91t77.5 -68t109.5 -54.5t125.5 -50.5t125.5 -57t109.5 -73.5t77.5 -99.5t29.5 -135q0 -93 -38 -163t-106 -116.5t-163.5 -69.5t-210.5 -23q-52 0 -103.5 4t-99 10t-89.5 14t-76 17z" />
<glyph unicode="T" d="M86 1155v152h954v-152h-387v-1155h-180v1155h-387z" />
<glyph unicode="U" d="M109 428v879h178v-865q0 -77 14.5 -135t47.5 -97t85.5 -59t128.5 -20q142 0 209.5 82t67.5 231v863h178v-852q0 -108 -30.5 -195.5t-89.5 -149t-144.5 -95t-196.5 -33.5q-122 0 -207 32t-138.5 90.5t-78 140.5t-24.5 183z" />
<glyph unicode="V" d="M4 1307h201l282 -881l80 -258l82 258l283 881h190l-444 -1307h-240z" />
<glyph unicode="W" d="M45 1307h168l51 -889l15 -244l63 207l158 485h123l182 -520l61 -172l4 180l52 953h159l-88 -1307h-231l-162 465l-45 149l-47 -161l-150 -453h-223z" />
<glyph unicode="X" d="M18 0l435 668l-400 639h211l299 -492l301 492h205l-401 -631l434 -676h-225l-318 528l-319 -528h-222z" />
<glyph unicode="Y" d="M0 1307h215l260 -478l96 -192l88 174l263 496h204l-473 -840v-467h-180v471z" />
<glyph unicode="Z" d="M111 0v133l671 1012h-653v162h872v-140l-667 -1001h680v-166h-903z" />
<glyph unicode="[" d="M345 -410v1858h493v-140h-327v-1578h327v-140h-493z" />
<glyph unicode="\" d="M160 1413h166l686 -1628h-166z" />
<glyph unicode="]" d="M288 -270h325v1578h-325v140h493v-1858h-493v140z" />
<glyph unicode="^" d="M121 668l366 639h142l385 -639h-174l-289 501l-272 -501h-158z" />
<glyph unicode="_" d="M0 -266h1126v-144h-1126v144z" />
<glyph unicode="`" d="M0 1004zM174 1413h252l242 -242h-174z" />
<glyph unicode="a" d="M133 268q0 151 112.5 236.5t332.5 85.5h208v88q0 89 -57 142.5t-174 53.5q-85 0 -167.5 -19t-170.5 -54v157q33 12 73.5 23.5t85.5 20.5t94 14.5t99 5.5q91 0 164 -20t123.5 -61t77.5 -103t27 -146v-692h-156l-4 135q-82 -81 -166.5 -117t-177.5 -36q-86 0 -147 22 t-100.5 60.5t-58 90.5t-18.5 113zM317 274q0 -29 9 -55.5t29 -47t52 -32.5t78 -12q60 0 137.5 36.5t163.5 115.5v178h-221q-65 0 -112 -13t-77 -37t-44.5 -57.5t-14.5 -75.5z" />
<glyph unicode="b" d="M160 59v1354h174v-389l-8 -186q75 101 160.5 142.5t183.5 41.5q86 0 151 -36t109 -101.5t66 -158t22 -206.5q0 -125 -34.5 -223.5t-98 -167t-154.5 -105t-205 -36.5q-89 0 -182 17t-184 54zM334 172q51 -20 104 -31.5t101 -11.5q60 0 114.5 19t96 63.5t66 118t24.5 182.5 q0 79 -11.5 145t-36.5 113t-64 73.5t-93 26.5q-33 0 -67 -10.5t-70.5 -35t-77 -65t-86.5 -100.5v-487z" />
<glyph unicode="c" d="M158 492q0 119 37 216t104 166t160 106.5t205 37.5q78 0 146 -11t130 -36v-166q-65 34 -132.5 49.5t-139.5 15.5q-67 0 -126.5 -25.5t-104.5 -73.5t-71 -117t-26 -156q0 -182 88.5 -272.5t245.5 -90.5q71 0 137.5 16t128.5 48v-162q-68 -26 -139.5 -38.5t-147.5 -12.5 q-238 0 -366.5 129t-128.5 377z" />
<glyph unicode="d" d="M109 481q0 128 35 227.5t99.5 168t155 104t201.5 35.5q48 0 94.5 -6t91.5 -19v422h175v-1413h-156l-6 190q-73 -106 -158 -157t-184 -51q-86 0 -151.5 36t-109 101.5t-65.5 157.5t-22 204zM287 492q0 -182 53.5 -271.5t151.5 -89.5q66 0 139.5 59t154.5 175v466 q-43 20 -95 30.5t-103 10.5q-142 0 -221.5 -92t-79.5 -288z" />
<glyph unicode="e" d="M117 500q0 106 30.5 200.5t89 166t143.5 113.5t193 42q105 0 186 -33t136.5 -93.5t84 -147t28.5 -193.5q0 -37 -1 -62t-3 -47h-705q0 -154 86 -236.5t248 -82.5q44 0 88 3.5t85 9.5t78.5 13.5t69.5 16.5v-143q-71 -20 -160.5 -32.5t-185.5 -12.5q-129 0 -222 35 t-152.5 101.5t-88 163t-28.5 218.5zM299 580h528v21q0 55 -13 101q-16 56 -49.5 96t-83.5 62.5t-116 22.5q-57 0 -104 -22t-81 -62t-55 -96t-26 -123z" />
<glyph unicode="f" d="M0 1004zM80 713v145h323v166q0 401 418 401q104 0 230 -24v-150q-137 29 -236 29q-235 0 -235 -246v-176h440v-145h-440v-713h-177v713h-323z" />
<glyph unicode="g" d="M94 -160q0 73 34 128t105 106q-26 12 -45 30t-31 39.5t-18 45.5t-6 47q0 65 30.5 119t72.5 102q-19 23 -33.5 45t-25 47.5t-16 55t-5.5 67.5q0 78 28.5 142.5t80 110.5t124 71.5t160.5 25.5q37 0 71 -5t60 -13h364v-142h-161q28 -35 43.5 -81.5t15.5 -100.5 q0 -78 -28.5 -142.5t-80.5 -110.5t-124.5 -71.5t-159.5 -25.5q-63 0 -118 13.5t-87 33.5q-19 -28 -32 -53t-13 -56q0 -38 36.5 -63t96.5 -27l264 -10q75 -2 138.5 -19t109 -49t71 -79t25.5 -109q0 -67 -29 -127t-89.5 -105.5t-153.5 -72.5t-221 -27q-122 0 -207.5 19.5 t-140.5 54t-80 82t-25 104.5zM279 -145q0 -71 74 -103.5t206 -32.5q83 0 139.5 15t91 39.5t49.5 56t15 64.5q0 61 -50 90t-153 34l-262 9q-33 -22 -54.5 -43t-33.5 -42.5t-17 -43t-5 -43.5zM332 676q0 -48 16 -88t45 -68t68.5 -43.5t87.5 -15.5q52 0 92.5 17.5t68 47.5 t42 69t14.5 81q0 48 -16 88t-45 68t-68.5 43.5t-87.5 15.5q-52 0 -92.5 -18t-68 -47.5t-42 -68.5t-14.5 -81z" />
<glyph unicode="h" d="M160 0v1413h174v-409l-6 -158q41 49 80.5 82.5t79 54.5t80.5 30t85 9q150 0 232 -91.5t82 -275.5v-655h-174v641q0 116 -43.5 173.5t-124.5 57.5q-35 0 -65.5 -9.5t-63.5 -33t-72 -63.5t-90 -100v-666h-174z" />
<glyph unicode="i" d="M172 0v145h330v715h-297v144h473v-859h299v-145h-805zM426 1288q0 29 10.5 53.5t29 43.5t43.5 29.5t54 10.5t54 -10.5t43.5 -29.5t29 -43.5t10.5 -53.5q0 -28 -10.5 -53t-29 -44t-43.5 -29.5t-54 -10.5t-54 10.5t-43.5 29.5t-29 44t-10.5 53z" />
<glyph unicode="j" d="M131 -203q31 -16 66.5 -29t73 -22t75.5 -13.5t74 -4.5q114 0 179 72t65 212v848h-492v144h668v-986q0 -105 -30 -186.5t-86 -137.5t-137.5 -85t-183.5 -29q-74 0 -144.5 13.5t-127.5 37.5v166zM598 1288q0 28 10.5 53t29 44t43.5 29.5t54 10.5t54 -10.5t43.5 -29.5 t29 -44t10.5 -53q0 -29 -10.5 -53.5t-29 -43.5t-43.5 -29.5t-54 -10.5t-54 10.5t-43.5 29.5t-29 43.5t-10.5 53.5z" />
<glyph unicode="k" d="M182 0v1413h174v-868l451 459h230l-471 -463l497 -541h-239l-468 538v-538h-174z" />
<glyph unicode="l" d="M172 0v145h330v1125h-297v143h473v-1268h299v-145h-805z" />
<glyph unicode="m" d="M90 0v1004h133l8 -191q26 57 50.5 97t50.5 64.5t55.5 36t65.5 11.5q81 0 123 -53t42 -164q24 52 47 92.5t49.5 68t58.5 42t74 14.5q189 0 189 -291v-731h-160v721q0 47 -3.5 77t-11 47.5t-19 24.5t-28.5 7q-20 0 -37 -12t-36.5 -39t-43 -71.5t-55.5 -109.5v-645h-159v702 q0 55 -3.5 89t-11 53t-19.5 26t-29 7q-18 0 -34 -10t-35.5 -36t-43.5 -71t-57 -115v-645h-160z" />
<glyph unicode="n" d="M160 0v1004h155l7 -162q44 52 85 86.5t80.5 55.5t80.5 29.5t85 8.5q155 0 234.5 -91.5t79.5 -275.5v-655h-174v641q0 118 -44 174.5t-131 56.5q-32 0 -62.5 -9.5t-63.5 -33t-71.5 -63.5t-86.5 -100v-666h-174z" />
<glyph unicode="o" d="M92 496q0 117 33 213.5t95 166t151 108t202 38.5q108 0 193.5 -33.5t145 -98t91 -160.5t31.5 -220q0 -117 -33 -214.5t-95 -167t-151 -108t-202 -38.5q-108 0 -193.5 33.5t-145 98.5t-91 161t-31.5 221zM270 502q0 -93 20.5 -163t58.5 -116.5t92 -70t122 -23.5 q78 0 133.5 30.5t91 81.5t52 118.5t16.5 142.5q0 93 -20.5 162.5t-58.5 116t-92.5 70t-121.5 23.5q-78 0 -133.5 -30.5t-91 -81.5t-52 -118.5t-16.5 -141.5z" />
<glyph unicode="p" d="M160 -410v1414h155l11 -168q75 103 160 144.5t184 41.5q86 0 151 -36t109 -101.5t66 -158t22 -206.5q0 -134 -37.5 -234t-103.5 -166t-156 -99t-195 -33q-48 0 -95.5 5t-96.5 17v-420h-174zM334 172q48 -20 101 -31.5t104 -11.5q141 0 221 95.5t80 287.5q0 79 -11.5 145 t-36.5 113t-64 73.5t-93 26.5q-33 0 -67 -10.5t-70.5 -35t-77 -65t-86.5 -100.5v-487z" />
<glyph unicode="q" d="M109 481q0 108 28.5 205t88 170.5t152.5 116.5t222 43q51 0 101 -8t106 -25l154 39v-1432h-175v379l9 215q-142 -202 -338 -202q-88 0 -153 36t-108.5 102t-65 158t-21.5 203zM287 492q0 -84 12.5 -151t38 -113.5t64 -71.5t90.5 -25q66 0 139.5 59t154.5 175v466 q-40 19 -90.5 31t-107.5 12q-147 0 -224 -97t-77 -285z" />
<glyph unicode="r" d="M201 0v1004h159l5 -185q89 107 175.5 155t174.5 48q157 0 237 -101q75 -94 74 -273v-27h-176v17q0 118 -38 174q-42 60 -122 60q-35 0 -70.5 -12.5t-73 -40t-79.5 -70.5t-90 -104v-645h-176z" />
<glyph unicode="s" d="M182 20v160q88 -25 175 -38t173 -13q125 0 185 34t60 97q0 27 -9.5 48.5t-34.5 41t-77.5 40.5t-143.5 48q-68 20 -125.5 45.5t-99.5 60.5t-66 82t-24 111q0 42 19.5 92t66.5 93t127 71.5t200 28.5q59 0 131 -6.5t150 -22.5v-155q-82 20 -155.5 29.5t-127.5 9.5 q-65 0 -109.5 -10t-72 -27.5t-39.5 -41t-12 -50.5t10.5 -49t39 -42.5t79.5 -41t133 -44.5q89 -26 150 -54.5t99 -63.5t54.5 -79t16.5 -100q0 -53 -18 -95t-49 -74.5t-72 -55.5t-87.5 -38t-95.5 -22t-96 -7q-102 0 -187.5 9t-167.5 29z" />
<glyph unicode="t" d="M63 858v146h281v276l174 45v-321h451v-146h-451v-510q0 -108 57.5 -161.5t169.5 -53.5q48 0 105 7.5t119 23.5v-150q-59 -15 -122 -21.5t-128 -6.5q-189 0 -282 85.5t-93 262.5v524h-281z" />
<glyph unicode="u" d="M160 348v656h174v-642q0 -231 174 -231q32 0 62.5 9.5t64 33t72 63.5t86.5 101v666h174v-1004h-156l-6 162q-45 -52 -85.5 -86.5t-80.5 -55.5t-80.5 -29.5t-85.5 -8.5q-155 0 -234 91t-79 275z" />
<glyph unicode="v" d="M66 1004h198l246 -664l53 -162l55 166l244 660h191l-394 -1004h-200z" />
<glyph unicode="w" d="M37 1004h170l84 -682l18 -152l43 133l146 451h125l157 -445l45 -133l15 141l78 687h172l-146 -1004h-211l-145 420l-29 102l-33 -108l-139 -414h-205z" />
<glyph unicode="x" d="M70 0l389 504l-371 500h223l264 -386l259 386h215l-377 -504l393 -500h-231l-271 383l-268 -383h-225z" />
<glyph unicode="y" d="M59 -254q22 -3 48 -5.5t55 -2.5q48 0 89.5 14t78.5 45.5t71 81.5t66 121l-401 1004h198l254 -664l51 -156l58 160l235 660h191l-342 -898q-53 -137 -109.5 -236t-123.5 -162.5t-147 -93.5t-179 -30q-26 0 -47 1t-46 3v158z" />
<glyph unicode="z" d="M164 0v125l567 733h-553v146h762v-136l-557 -721h590v-147h-809z" />
<glyph unicode="{" d="M162 506v139h43q73 0 119 12t72 36.5t36 62.5t10 90v237q0 84 20 151.5t65.5 115t118 73t177.5 25.5h74v-140h-59q-232 0 -232 -225v-233q0 -244 -211 -275q213 -21 213 -274v-342q0 -229 230 -229h59v-140h-74q-193 0 -287 90.5t-94 274.5v344q0 49 -11 87.5t-38.5 65 t-73 40.5t-114.5 14h-43z" />
<glyph unicode="|" d="M481 -410v2048h164v-2048h-164z" />
<glyph unicode="}" d="M229 -270h60q231 0 231 225v346q0 244 211 274q-213 23 -213 275v229q0 229 -229 229h-60v140h74q193 0 287 -90.5t94 -274.5v-231q0 -49 11 -87.5t38.5 -65t73.5 -40.5t115 -14h43v-139h-43q-73 0 -119.5 -12t-72.5 -36.5t-36 -62.5t-10 -90v-350q0 -84 -20 -151.5 t-65 -115t-118 -73t-178 -25.5h-74v140z" />
<glyph unicode="~" d="M66 401q-2 76 15.5 140.5t53 112t89 74t124.5 26.5q55 0 99 -18.5t81.5 -46.5t69 -61t62 -61t60.5 -46.5t64 -18.5q63 0 90 46t27 148h160q1 -76 -16 -140.5t-53 -111.5t-89.5 -73.5t-124.5 -26.5q-55 0 -99 18.5t-81.5 46.5t-69 61t-62 61t-60.5 46.5t-64 18.5 q-59 0 -87.5 -47t-28.5 -148h-160z" />
<glyph unicode="&#xa0;" />
<glyph unicode="&#xa1;" d="M434 891q0 27 10.5 51t28.5 41.5t41.5 28t50.5 10.5q28 0 52 -10.5t42 -28t28.5 -41.5t10.5 -51q0 -28 -10.5 -52t-28.5 -42t-42 -28.5t-52 -10.5q-27 0 -50.5 10.5t-41.5 28.5t-28.5 42t-10.5 52zM461 -410l26 1031h154l31 -1031h-211z" />
<glyph unicode="&#xa2;" d="M125 657q0 112 35 203.5t99 157.5t153 103.5t196 41.5l43 332h148l-45 -340q40 -5 78 -14.5t75 -22.5v-164q-42 20 -85 34t-87 22l-94 -693q71 0 137 14.5t129 45.5v-158q-134 -49 -284 -49l-58 -420h-145l57 432q-171 35 -261.5 154t-90.5 321zM307 666 q0 -131 50 -212.5t141 -115.5l90 676q-59 -8 -110.5 -34.5t-89.5 -71t-59.5 -105.5t-21.5 -137z" />
<glyph unicode="&#xa3;" d="M92 0v148h160v431h-160v143h160v180q0 101 29.5 179.5t84 132.5t132 82.5t174.5 28.5q106 0 190 -37.5t144 -92.5l-97 -111q-26 22 -52 39.5t-54.5 29.5t-61.5 18t-73 6q-54 0 -98 -17t-75 -50t-48 -81.5t-17 -112.5v-194h436v-143h-436v-431h567v-148h-905z" />
<glyph unicode="&#xa4;" d="M86 152l174 229q-35 51 -54.5 119.5t-19.5 154.5q0 78 21 147.5t61 125.5l-182 243l154 91l147 -230q38 22 84 33.5t100 11.5q102 0 179 -37l141 222l149 -91l-174 -229q35 -51 54.5 -119.5t19.5 -154.5q0 -78 -21 -147.5t-61 -125.5l182 -243l-153 -91l-148 230 q-38 -22 -84 -33.5t-100 -11.5q-103 0 -178 37l-141 -222zM366 662q0 -131 53 -197t144 -66q52 0 89.5 24t61.5 61.5t35 84.5t11 93q0 131 -53 196.5t-144 65.5q-52 0 -89 -23.5t-61.5 -61t-35.5 -84.5t-11 -93z" />
<glyph unicode="&#xa5;" d="M55 1307h205l209 -367l100 -188l107 192l205 363h196l-424 -705v-29h308v-135h-308v-162h308v-135h-308v-141h-180v141h-307v135h307v162h-309v135h309v29z" />
<glyph unicode="&#xa6;" d="M481 -410v836h164v-836h-164zM481 827v811h164v-811h-164z" />
<glyph unicode="&#xa7;" d="M141 674q0 39 11 79t33 77.5t55 71t77 59.5q-29 24 -52 64.5t-23 94.5q0 48 19.5 101.5t66.5 98.5t127 75t200 30q115 0 226 -24v-150q-63 17 -118.5 24t-111.5 7q-65 0 -108.5 -11t-70.5 -30.5t-38.5 -46.5t-11.5 -59q0 -34 24.5 -63.5t64.5 -58.5t91 -58t104.5 -61.5 t104.5 -69.5t91 -82t64.5 -98.5t24.5 -119.5q0 -40 -11.5 -80t-34 -77.5t-55.5 -70.5t-75 -58q32 -26 55 -67t23 -89q0 -83 -39 -142.5t-100 -98t-135.5 -56.5t-145.5 -18q-51 0 -91 2t-75 6t-67 10.5t-66 15.5v160q37 -12 71.5 -21t69.5 -15t72.5 -8.5t79.5 -2.5 q125 0 185.5 41.5t60.5 114.5q0 33 -24.5 62t-65 57t-91.5 57t-105 61.5t-105 69.5t-91.5 81.5t-65 97.5t-24.5 118zM311 690q0 -61 36 -109.5t92.5 -91t124.5 -81.5t132 -80q31 15 54 37.5t39 47.5t24 50.5t8 46.5q0 61 -37 109.5t-94 90t-125.5 80t-130.5 80.5 q-30 -15 -53 -37t-38.5 -47t-23.5 -50t-8 -46z" />
<glyph unicode="&#xa8;" d="M0 1004zM236 1292q0 23 9 43.5t24 36t35.5 24.5t43.5 9t43.5 -9t36 -24.5t24.5 -36t9 -43.5t-9 -43.5t-24.5 -35.5t-36 -24t-43.5 -9t-43.5 9t-35.5 24t-24 35.5t-9 43.5zM666 1292q0 23 9 43.5t24 36t35.5 24.5t43.5 9t43.5 -9t36 -24.5t24.5 -36t9 -43.5t-9 -43.5 t-24.5 -35.5t-36 -24t-43.5 -9t-43.5 9t-35.5 24t-24 35.5t-9 43.5z" />
<glyph unicode="&#xa9;" d="M12 653q0 148 39.5 271t112.5 211.5t174.5 138t226.5 49.5q129 0 231 -51.5t172.5 -142t108 -213t37.5 -263.5q0 -148 -39.5 -271t-112.5 -211.5t-175 -137.5t-226 -49q-129 0 -231 51.5t-172.5 141.5t-108 212.5t-37.5 263.5zM160 653q0 -114 28.5 -212.5t81 -171 t127 -113.5t166.5 -41q91 0 165.5 38.5t127.5 109t81.5 169.5t28.5 221q0 114 -28 212.5t-80.5 171t-127.5 114t-167 41.5q-90 0 -164.5 -38.5t-127.5 -109t-82 -170t-29 -221.5zM299 647q0 78 21.5 140.5t61 107t95.5 68.5t125 24q93 0 168 -31v-134q-35 19 -72 29t-75 10 q-82 0 -127 -54.5t-45 -156.5q0 -106 44.5 -155.5t129.5 -49.5q76 0 145 37v-130q-83 -33 -174 -33q-297 0 -297 328z" />
<glyph unicode="&#xaa;" d="M225 358v136h676v-136h-676zM244 821q0 97 83 156t251 59h104v49q0 51 -34.5 82t-117.5 31q-49 0 -110 -14t-123 -39v133q51 20 117 31.5t135 11.5q78 0 133 -16t90 -46t51.5 -72.5t16.5 -94.5v-461h-133l-11 92q-46 -48 -102.5 -77.5t-134.5 -29.5q-99 0 -157 51.5 t-58 153.5zM410 825q0 -42 24 -64t72 -22q40 0 84 22.5t92 65.5v101h-119q-41 0 -70 -8t-47.5 -22.5t-27 -33t-8.5 -39.5z" />
<glyph unicode="&#xab;" d="M143 543l258 403l138 -69l-218 -334l218 -336l-138 -70zM563 543l275 399l133 -72l-234 -327l234 -328l-133 -72z" />
<glyph unicode="&#xac;" d="M117 469v152h854v-447h-170v295h-684z" />
<glyph unicode="&#xad;" d="M264 463v164h598v-164h-598z" />
<glyph unicode="&#x2010;" d="M264 463v164h598v-164h-598z" />
<glyph unicode="&#xae;" d="M106 969q0 94 36 177.5t98 145t145 97.5t178 36q94 0 177.5 -36t145.5 -97.5t98 -145t36 -177.5q0 -95 -36 -178t-98 -145t-145.5 -98t-177.5 -36q-95 0 -178 36t-145 98t-98 145t-36 178zM221 969q0 -74 26.5 -138.5t73 -112.5t109 -76t133.5 -28q72 0 134 28t108.5 76 t73 112.5t26.5 138.5q0 73 -26.5 137.5t-73 112.5t-108.5 76t-134 28q-71 0 -133.5 -28t-109 -76t-73 -112.5t-26.5 -137.5zM397 709v520h156q88 0 140 -32t52 -112q0 -57 -32.5 -89t-81.5 -40q18 -5 34 -22t33 -51l82 -174h-116l-74 168q-11 23 -28.5 35t-43.5 12h-20v-215 h-101zM498 1001h41q46 0 74 18.5t28 55.5q0 38 -24.5 55t-73.5 17h-45v-146z" />
<glyph unicode="&#xaf;" d="M0 1004zM301 1225v133h524v-133h-524z" />
<glyph unicode="&#x2c9;" d="M0 1004zM301 1225v133h524v-133h-524z" />
<glyph unicode="&#xb0;" d="M213 1083q0 72 26 134.5t73 108.5t112.5 72.5t144.5 26.5q83 0 147.5 -24t108 -67.5t66 -104t22.5 -133.5q0 -72 -26 -134.5t-73 -108.5t-112.5 -72.5t-144.5 -26.5q-83 0 -147 24t-108 67.5t-66.5 104t-22.5 133.5zM375 1090q0 -43 10.5 -80t33.5 -64t58.5 -42t85.5 -15 q90 0 139 55t49 146q0 43 -11 79.5t-33.5 63.5t-58 42t-85.5 15q-45 0 -80 -14.5t-59 -40.5t-36.5 -63t-12.5 -82z" />
<glyph unicode="&#xb1;" d="M104 684v147h375v388h168v-388h375v-147h-375v-389h-168v389h-375zM133 0v145h860v-145h-860z" />
<glyph unicode="&#xb2;" d="M246 774l217 168q58 45 94.5 77t57.5 57.5t28.5 48t7.5 49.5q0 46 -33.5 76t-99.5 30q-51 0 -97 -18.5t-83 -50.5l-86 106q54 54 128.5 83.5t158.5 29.5q63 0 117.5 -15.5t94 -46.5t62.5 -76.5t23 -105.5q0 -47 -14 -88t-42.5 -79.5t-70.5 -75.5t-97 -76l-114 -82h385 v-154h-637v143z" />
<glyph unicode="&#xb3;" d="M274 771q34 -8 89.5 -12t115.5 -4q91 0 145 28.5t54 80.5q0 24 -10 43.5t-33.5 33t-62.5 21t-97 7.5h-82v129h76q49 0 82 8.5t53 23t28.5 34t8.5 40.5q0 19 -7 34.5t-23 27t-43.5 18t-67.5 6.5q-54 0 -109 -9t-100 -23v141q24 7 53.5 12.5t61 9.5t64 6.5t62.5 2.5 q148 0 218.5 -53.5t70.5 -141.5q0 -71 -33 -115.5t-92 -70.5q38 -10 68.5 -25t52.5 -36.5t33.5 -50.5t11.5 -68q0 -56 -25 -103t-73.5 -80.5t-121.5 -52t-169 -18.5q-29 0 -58 1t-55 3t-48 5t-38 7v140z" />
<glyph unicode="&#xb4;" d="M0 1004zM459 1171l241 242h252l-319 -242h-174z" />
<glyph unicode="&#xb5;" d="M160 -410v1414h174v-639q0 -232 174 -232q30 0 62 10t63.5 32.5t67 62t79.5 100.5v666h174v-689q0 -51 5 -85t17.5 -54.5t32.5 -29.5t50 -9h18v-139q-14 -3 -31.5 -5.5t-37.5 -2.5q-50 0 -85.5 12.5t-59.5 36t-38.5 57.5t-23.5 76q-43 -57 -83 -93.5t-79.5 -57.5t-75 -29 t-68.5 -8q-52 0 -96.5 18.5t-78.5 57.5l14 -173v-297h-174z" />
<glyph unicode="&#xb6;" d="M109 995q0 87 32.5 163t99 133t168.5 89.5t242 32.5h346v-1208q0 -105 -29.5 -187t-85 -137.5t-135 -84.5t-178.5 -29t-185 32t-159 90l90 131q53 -46 121.5 -75t141.5 -29q114 0 179.5 71t65.5 212v1071h-168v-699q-155 0 -259.5 33.5t-168.5 91t-91 135t-27 164.5z" />
<glyph unicode="&#xb7;" d="M397 565q0 34 13 65t35.5 53.5t52.5 36t65 13.5q34 0 64.5 -13.5t53 -36t35.5 -53.5t13 -65t-13 -64t-35.5 -52.5t-53 -36t-64.5 -13.5q-35 0 -65 13.5t-52.5 36t-35.5 52.5t-13 64z" />
<glyph unicode="&#x2219;" d="M397 565q0 34 13 65t35.5 53.5t52.5 36t65 13.5q34 0 64.5 -13.5t53 -36t35.5 -53.5t13 -65t-13 -64t-35.5 -52.5t-53 -36t-64.5 -13.5q-35 0 -65 13.5t-52.5 36t-35.5 52.5t-13 64z" />
<glyph unicode="&#xb8;" d="M436 -295l66 295h172l-86 -295h-152z" />
<glyph unicode="&#xb9;" d="M227 1266l312 156h139v-646h201v-145h-613v145h238v467l-219 -108z" />
<glyph unicode="&#xba;" d="M221 965q0 76 24 141t69 113t110.5 75t148.5 27q78 0 139.5 -22t104 -65.5t65.5 -108.5t23 -150q0 -75 -23.5 -140.5t-68.5 -114t-109.5 -76.5t-146.5 -28q-78 0 -140.5 22t-106 65.5t-66.5 109t-23 152.5zM225 358v136h676v-136h-676zM385 969q0 -109 48.5 -163 t129.5 -54q45 0 78 16.5t55.5 46t33.5 69.5t11 87q0 108 -45.5 161t-132.5 53q-45 0 -78 -17t-55.5 -46.5t-33.5 -69t-11 -83.5z" />
<glyph unicode="&#xbb;" d="M156 215l233 328l-233 327l133 72l274 -399l-274 -400zM588 207l217 336l-217 334l137 69l258 -403l-258 -406z" />
<glyph unicode="&#xbc;" d="M20 0l920 1413h166l-922 -1413h-164zM25 1296l239 129h139v-581h-157v426l-166 -90zM535 109v122l219 338h233v-338h90v-122h-90v-109h-153v109h-299zM688 231h146v226z" />
<glyph unicode="&#xbd;" d="M20 0l920 1413h166l-922 -1413h-164zM25 1296l239 129h139v-581h-157v426l-166 -90zM633 502q22 19 45 34.5t48.5 26t55 16t64.5 5.5q44 0 83 -12.5t68.5 -36.5t46.5 -59.5t17 -82.5q0 -30 -9.5 -56.5t-30 -53t-53 -54.5t-79.5 -61l-62 -43h252v-125h-440v125l186 147 q47 35 63.5 60.5t16.5 54.5q0 15 -3.5 28t-12.5 23.5t-24.5 16.5t-39.5 6q-32 0 -59.5 -14t-65.5 -46z" />
<glyph unicode="&#xbe;" d="M20 0l920 1413h166l-922 -1413h-164zM86 842v119q23 -5 53.5 -8t59.5 -3q63 0 89.5 18.5t26.5 49.5q0 34 -24 47.5t-78 13.5h-90v113h84q47 0 64.5 17.5t17.5 43.5q0 23 -18.5 39.5t-63.5 16.5q-31 0 -58 -5.5t-53 -11.5v113q34 12 71.5 17t82.5 5q100 0 152.5 -38 t52.5 -103q0 -52 -19 -84t-61 -49q56 -11 85 -44t29 -87q0 -42 -18 -77t-53.5 -61t-88 -40.5t-122.5 -14.5q-31 0 -63 3.5t-58 9.5zM535 109v122l219 338h233v-338h90v-122h-90v-109h-153v109h-299zM688 231h146v226z" />
<glyph unicode="&#xbf;" d="M203 35q0 161 90.5 245t259.5 95l8 246h150l12 -383h-117q-61 0 -102 -13t-66 -37t-36 -58.5t-11 -78.5q0 -73 30.5 -129.5t84.5 -95.5t128.5 -59.5t162.5 -20.5h24v-156h-26q-101 0 -184.5 19t-149.5 51.5t-114.5 76.5t-80.5 93.5t-47.5 102t-15.5 102.5zM506 891 q0 27 10 51t27.5 41.5t41.5 28t52 10.5t52 -10.5t41.5 -28t27.5 -41.5t10 -51q0 -28 -10 -52t-27.5 -42t-41.5 -28.5t-52 -10.5t-52 10.5t-41.5 28.5t-27.5 42t-10 52z" />
<glyph unicode="&#xc0;" d="M10 0l434 1307h244l428 -1307h-194l-91 285h-544l-92 -285h-185zM338 444h442l-221 699zM0 1307zM205 1659h252l211 -213h-179z" />
<glyph unicode="&#xc1;" d="M10 0l434 1307h244l428 -1307h-194l-91 285h-544l-92 -285h-185zM338 444h442l-221 699zM0 1307zM459 1446l211 213h252l-285 -213h-178z" />
<glyph unicode="&#xc2;" d="M10 0l434 1307h244l428 -1307h-194l-91 285h-544l-92 -285h-185zM338 444h442l-221 699zM0 1307zM248 1446l231 213h168l232 -213h-183l-135 102l-135 -102h-178z" />
<glyph unicode="&#xc3;" d="M10 0l434 1307h244l428 -1307h-194l-91 285h-544l-92 -285h-185zM338 444h442l-221 699zM0 1307zM201 1526q43 72 97.5 108.5t123.5 36.5q58 0 98 -17t71 -37t58.5 -37t61.5 -17q40 0 70.5 27.5t58.5 70.5l86 -82q-44 -72 -98 -108.5t-123 -36.5q-59 0 -98.5 17t-70.5 37 t-58.5 37t-61.5 17q-41 0 -71 -27.5t-58 -70.5z" />
<glyph unicode="&#xc4;" d="M10 0l434 1307h244l428 -1307h-194l-91 285h-544l-92 -285h-185zM338 444h442l-221 699zM0 1307zM238 1552q0 22 8.5 42t22.5 34t33.5 22.5t41.5 8.5t41.5 -8.5t34 -22.5t23 -34t8.5 -42t-8.5 -41.5t-23 -33.5t-34 -22.5t-41.5 -8.5q-45 0 -75.5 30.5t-30.5 75.5z M676 1552q0 22 8.5 42t22.5 34t33.5 22.5t41.5 8.5t42 -8.5t34 -22.5t22.5 -34t8.5 -42t-8.5 -41.5t-22.5 -33.5t-34 -22.5t-42 -8.5q-45 0 -75.5 30.5t-30.5 75.5z" />
<glyph unicode="&#xc5;" d="M10 0l434 1307h244l428 -1307h-194l-91 285h-544l-92 -285h-185zM338 444h442l-221 699zM0 1307zM362 1550q0 42 15.5 77t42.5 60.5t63.5 39t79.5 13.5t80 -13.5t64 -39t42 -60.5t15 -77q0 -41 -15 -76.5t-42 -61t-64 -40t-80 -14.5t-79.5 14.5t-63.5 40t-42.5 61 t-15.5 76.5zM473 1550q0 -40 25 -65t65 -25q42 0 66 25t24 65q0 41 -24 64.5t-66 23.5q-40 0 -65 -23.5t-25 -64.5z" />
<glyph unicode="&#xc6;" d="M-43 0l532 1307h582v-142h-321v-417h307v-142h-307v-463h335v-143h-501v281h-342l-109 -281h-176zM297 424h287v743z" />
<glyph unicode="&#xc7;" d="M92 639q0 157 41 284t117 215.5t184 136.5t242 48q91 0 169 -15.5t150 -47.5v-175q-71 39 -147 59.5t-166 20.5q-92 0 -166.5 -34.5t-126.5 -100t-80 -160t-28 -215.5q0 -252 103 -382t302 -130q84 0 161 19.5t148 54.5v-168q-159 -65 -319 -65l-82 -279h-152l66 295 q-202 41 -309 204.5t-107 434.5z" />
<glyph unicode="&#xc8;" d="M201 0v1307h743v-150h-565v-405h543v-150h-543v-450h565v-152h-743zM0 1307zM205 1659h252l211 -213h-179z" />
<glyph unicode="&#xc9;" d="M201 0v1307h743v-150h-565v-405h543v-150h-543v-450h565v-152h-743zM0 1307zM459 1446l211 213h252l-285 -213h-178z" />
<glyph unicode="&#xca;" d="M201 0v1307h743v-150h-565v-405h543v-150h-543v-450h565v-152h-743zM0 1307zM248 1446l231 213h168l232 -213h-183l-135 102l-135 -102h-178z" />
<glyph unicode="&#xcb;" d="M201 0v1307h743v-150h-565v-405h543v-150h-543v-450h565v-152h-743zM0 1307zM238 1552q0 22 8.5 42t22.5 34t33.5 22.5t41.5 8.5t41.5 -8.5t34 -22.5t23 -34t8.5 -42t-8.5 -41.5t-23 -33.5t-34 -22.5t-41.5 -8.5q-45 0 -75.5 30.5t-30.5 75.5zM676 1552q0 22 8.5 42 t22.5 34t33.5 22.5t41.5 8.5t42 -8.5t34 -22.5t22.5 -34t8.5 -42t-8.5 -41.5t-22.5 -33.5t-34 -22.5t-42 -8.5q-45 0 -75.5 30.5t-30.5 75.5z" />
<glyph unicode="&#xcc;" d="M172 0v152h301v1005h-301v150h782v-150h-301v-1005h301v-152h-782zM0 1307zM205 1659h252l211 -213h-179z" />
<glyph unicode="&#xcd;" d="M172 0v152h301v1005h-301v150h782v-150h-301v-1005h301v-152h-782zM0 1307zM459 1446l211 213h252l-285 -213h-178z" />
<glyph unicode="&#xce;" d="M172 0v152h301v1005h-301v150h782v-150h-301v-1005h301v-152h-782zM0 1307zM248 1446l231 213h168l232 -213h-183l-135 102l-135 -102h-178z" />
<glyph unicode="&#xcf;" d="M172 0v152h301v1005h-301v150h782v-150h-301v-1005h301v-152h-782zM0 1307zM238 1552q0 22 8.5 42t22.5 34t33.5 22.5t41.5 8.5t41.5 -8.5t34 -22.5t23 -34t8.5 -42t-8.5 -41.5t-23 -33.5t-34 -22.5t-41.5 -8.5q-45 0 -75.5 30.5t-30.5 75.5zM676 1552q0 22 8.5 42 t22.5 34t33.5 22.5t41.5 8.5t42 -8.5t34 -22.5t22.5 -34t8.5 -42t-8.5 -41.5t-22.5 -33.5t-34 -22.5t-42 -8.5q-45 0 -75.5 30.5t-30.5 75.5z" />
<glyph unicode="&#xd0;" d="M0 602v150h139v555h318q305 0 450.5 -157.5t145.5 -481.5q0 -94 -13.5 -180t-44.5 -160t-81 -134.5t-122.5 -103.5t-170 -66.5t-222.5 -23.5h-260v602h-139zM317 154h113q223 0 329.5 125.5t106.5 375.5q0 139 -24.5 235t-75.5 155t-129.5 85.5t-185.5 26.5h-134v-405 h226v-150h-226v-448z" />
<glyph unicode="&#xd1;" d="M119 0v1307h229l363 -772l131 -299v700v371h166v-1307h-232l-381 815l-110 262v-659v-418h-166zM0 1307zM201 1526q43 72 97.5 108.5t123.5 36.5q58 0 98 -17t71 -37t58.5 -37t61.5 -17q40 0 70.5 27.5t58.5 70.5l86 -82q-44 -72 -98 -108.5t-123 -36.5q-59 0 -98.5 17 t-70.5 37t-58.5 37t-61.5 17q-41 0 -71 -27.5t-58 -70.5z" />
<glyph unicode="&#xd2;" d="M57 647q0 174 41 302t111.5 211.5t164.5 124t199 40.5q126 0 219.5 -46t155.5 -131.5t92.5 -208.5t30.5 -277q0 -176 -41.5 -304t-112 -211.5t-165 -124t-199.5 -40.5q-126 0 -219.5 45.5t-155 131.5t-91.5 209.5t-30 278.5zM242 657q0 -116 18 -211.5t56.5 -164 t99.5 -106.5t147 -38q84 0 145 40.5t100.5 110t58.5 162.5t19 199q0 115 -17.5 210.5t-56.5 164.5t-100.5 107t-148.5 38q-84 0 -144.5 -40.5t-99.5 -110t-58 -163t-19 -198.5zM0 1307zM205 1659h252l211 -213h-179z" />
<glyph unicode="&#xd3;" d="M57 647q0 174 41 302t111.5 211.5t164.5 124t199 40.5q126 0 219.5 -46t155.5 -131.5t92.5 -208.5t30.5 -277q0 -176 -41.5 -304t-112 -211.5t-165 -124t-199.5 -40.5q-126 0 -219.5 45.5t-155 131.5t-91.5 209.5t-30 278.5zM242 657q0 -116 18 -211.5t56.5 -164 t99.5 -106.5t147 -38q84 0 145 40.5t100.5 110t58.5 162.5t19 199q0 115 -17.5 210.5t-56.5 164.5t-100.5 107t-148.5 38q-84 0 -144.5 -40.5t-99.5 -110t-58 -163t-19 -198.5zM0 1307zM459 1446l211 213h252l-285 -213h-178z" />
<glyph unicode="&#xd4;" d="M57 647q0 174 41 302t111.5 211.5t164.5 124t199 40.5q126 0 219.5 -46t155.5 -131.5t92.5 -208.5t30.5 -277q0 -176 -41.5 -304t-112 -211.5t-165 -124t-199.5 -40.5q-126 0 -219.5 45.5t-155 131.5t-91.5 209.5t-30 278.5zM242 657q0 -116 18 -211.5t56.5 -164 t99.5 -106.5t147 -38q84 0 145 40.5t100.5 110t58.5 162.5t19 199q0 115 -17.5 210.5t-56.5 164.5t-100.5 107t-148.5 38q-84 0 -144.5 -40.5t-99.5 -110t-58 -163t-19 -198.5zM0 1307zM248 1446l231 213h168l232 -213h-183l-135 102l-135 -102h-178z" />
<glyph unicode="&#xd5;" d="M57 647q0 174 41 302t111.5 211.5t164.5 124t199 40.5q126 0 219.5 -46t155.5 -131.5t92.5 -208.5t30.5 -277q0 -176 -41.5 -304t-112 -211.5t-165 -124t-199.5 -40.5q-126 0 -219.5 45.5t-155 131.5t-91.5 209.5t-30 278.5zM242 657q0 -116 18 -211.5t56.5 -164 t99.5 -106.5t147 -38q84 0 145 40.5t100.5 110t58.5 162.5t19 199q0 115 -17.5 210.5t-56.5 164.5t-100.5 107t-148.5 38q-84 0 -144.5 -40.5t-99.5 -110t-58 -163t-19 -198.5zM0 1307zM201 1526q43 72 97.5 108.5t123.5 36.5q58 0 98 -17t71 -37t58.5 -37t61.5 -17 q40 0 70.5 27.5t58.5 70.5l86 -82q-44 -72 -98 -108.5t-123 -36.5q-59 0 -98.5 17t-70.5 37t-58.5 37t-61.5 17q-41 0 -71 -27.5t-58 -70.5z" />
<glyph unicode="&#xd6;" d="M57 647q0 174 41 302t111.5 211.5t164.5 124t199 40.5q126 0 219.5 -46t155.5 -131.5t92.5 -208.5t30.5 -277q0 -176 -41.5 -304t-112 -211.5t-165 -124t-199.5 -40.5q-126 0 -219.5 45.5t-155 131.5t-91.5 209.5t-30 278.5zM242 657q0 -116 18 -211.5t56.5 -164 t99.5 -106.5t147 -38q84 0 145 40.5t100.5 110t58.5 162.5t19 199q0 115 -17.5 210.5t-56.5 164.5t-100.5 107t-148.5 38q-84 0 -144.5 -40.5t-99.5 -110t-58 -163t-19 -198.5zM0 1307zM238 1552q0 22 8.5 42t22.5 34t33.5 22.5t41.5 8.5t41.5 -8.5t34 -22.5t23 -34t8.5 -42 t-8.5 -41.5t-23 -33.5t-34 -22.5t-41.5 -8.5q-45 0 -75.5 30.5t-30.5 75.5zM676 1552q0 22 8.5 42t22.5 34t33.5 22.5t41.5 8.5t42 -8.5t34 -22.5t22.5 -34t8.5 -42t-8.5 -41.5t-22.5 -33.5t-34 -22.5t-42 -8.5q-45 0 -75.5 30.5t-30.5 75.5z" />
<glyph unicode="&#xd7;" d="M147 844l117 117l303 -306l301 301l107 -106l-301 -301l305 -303l-117 -117l-303 305l-301 -301l-106 107l301 301z" />
<glyph unicode="&#xd8;" d="M57 647q0 174 41 302t111.5 211.5t164.5 124t199 40.5q62 0 115 -12l64 209h145l-78 -258q127 -75 188.5 -228.5t61.5 -373.5q0 -176 -41 -304t-111.5 -211.5t-164.5 -124t-199 -40.5q-31 0 -59 2.5t-56 7.5l-61 -207h-146l76 256q-126 72 -188 227.5t-62 378.5zM242 657 q0 -146 27.5 -259t90.5 -179l283 940q-19 5 -38.5 7.5t-41.5 2.5q-84 0 -144.5 -40.5t-99.5 -110t-58 -163t-19 -198.5zM485 145q17 -5 37 -6.5t41 -1.5q84 0 144.5 40.5t100 110t58.5 162.5t19 199q0 146 -28 257t-91 179z" />
<glyph unicode="&#xd9;" d="M109 428v879h178v-865q0 -77 14.5 -135t47.5 -97t85.5 -59t128.5 -20q142 0 209.5 82t67.5 231v863h178v-852q0 -108 -30.5 -195.5t-89.5 -149t-144.5 -95t-196.5 -33.5q-122 0 -207 32t-138.5 90.5t-78 140.5t-24.5 183zM0 1307zM205 1659h252l211 -213h-179z" />
<glyph unicode="&#xda;" d="M109 428v879h178v-865q0 -77 14.5 -135t47.5 -97t85.5 -59t128.5 -20q142 0 209.5 82t67.5 231v863h178v-852q0 -108 -30.5 -195.5t-89.5 -149t-144.5 -95t-196.5 -33.5q-122 0 -207 32t-138.5 90.5t-78 140.5t-24.5 183zM0 1307zM459 1446l211 213h252l-285 -213h-178z " />
<glyph unicode="&#xdb;" d="M109 428v879h178v-865q0 -77 14.5 -135t47.5 -97t85.5 -59t128.5 -20q142 0 209.5 82t67.5 231v863h178v-852q0 -108 -30.5 -195.5t-89.5 -149t-144.5 -95t-196.5 -33.5q-122 0 -207 32t-138.5 90.5t-78 140.5t-24.5 183zM0 1307zM248 1446l231 213h168l232 -213h-183 l-135 102l-135 -102h-178z" />
<glyph unicode="&#xdc;" d="M109 428v879h178v-865q0 -77 14.5 -135t47.5 -97t85.5 -59t128.5 -20q142 0 209.5 82t67.5 231v863h178v-852q0 -108 -30.5 -195.5t-89.5 -149t-144.5 -95t-196.5 -33.5q-122 0 -207 32t-138.5 90.5t-78 140.5t-24.5 183zM0 1307zM238 1552q0 22 8.5 42t22.5 34 t33.5 22.5t41.5 8.5t41.5 -8.5t34 -22.5t23 -34t8.5 -42t-8.5 -41.5t-23 -33.5t-34 -22.5t-41.5 -8.5q-45 0 -75.5 30.5t-30.5 75.5zM676 1552q0 22 8.5 42t22.5 34t33.5 22.5t41.5 8.5t42 -8.5t34 -22.5t22.5 -34t8.5 -42t-8.5 -41.5t-22.5 -33.5t-34 -22.5t-42 -8.5 q-45 0 -75.5 30.5t-30.5 75.5z" />
<glyph unicode="&#xdd;" d="M0 1307h215l260 -478l96 -192l88 174l263 496h204l-473 -840v-467h-180v471zM0 1307zM459 1446l211 213h252l-285 -213h-178z" />
<glyph unicode="&#xde;" d="M158 0v1307h178v-195h190q97 0 186 -23t156.5 -72.5t107.5 -127.5t40 -187q0 -80 -30 -160t-93 -144t-161 -104t-234 -40h-162v-254h-178zM336 406h166q158 0 243.5 74t85.5 214q0 63 -21 113t-61.5 85.5t-98.5 54t-132 18.5h-182v-559z" />
<glyph unicode="&#xdf;" d="M147 0v1010q0 106 32 184t89 129.5t135 76.5t170 25q85 0 151.5 -20t112.5 -57t69.5 -89.5t23.5 -117.5q0 -60 -19.5 -102t-48.5 -73t-63 -55t-63 -47.5t-48.5 -50.5t-19.5 -65t26 -69t65.5 -62t85.5 -63t85.5 -72t65.5 -89.5t26 -113.5q0 -53 -19.5 -105t-64 -93 t-115.5 -67t-174 -26q-51 0 -93 4.5t-67 7.5v154q11 -4 29 -8t39 -7t43 -4.5t41 -1.5q53 0 91.5 10t63 27t36.5 39.5t12 48.5q0 47 -26 83t-65 68t-85 64t-85 69.5t-65 85t-26 111.5q0 56 19.5 96t48.5 70.5t63 54t63 48t48.5 53t19.5 67.5q0 82 -50.5 119t-146.5 37 q-54 0 -97 -15t-74 -47.5t-47.5 -83.5t-16.5 -122v-1016h-175z" />
<glyph unicode="&#xe0;" d="M133 268q0 151 112.5 236.5t332.5 85.5h208v88q0 89 -57 142.5t-174 53.5q-85 0 -167.5 -19t-170.5 -54v157q33 12 73.5 23.5t85.5 20.5t94 14.5t99 5.5q91 0 164 -20t123.5 -61t77.5 -103t27 -146v-692h-156l-4 135q-82 -81 -166.5 -117t-177.5 -36q-86 0 -147 22 t-100.5 60.5t-58 90.5t-18.5 113zM317 274q0 -29 9 -55.5t29 -47t52 -32.5t78 -12q60 0 137.5 36.5t163.5 115.5v178h-221q-65 0 -112 -13t-77 -37t-44.5 -57.5t-14.5 -75.5zM0 1004zM174 1413h252l242 -242h-174z" />
<glyph unicode="&#xe1;" d="M133 268q0 151 112.5 236.5t332.5 85.5h208v88q0 89 -57 142.5t-174 53.5q-85 0 -167.5 -19t-170.5 -54v157q33 12 73.5 23.5t85.5 20.5t94 14.5t99 5.5q91 0 164 -20t123.5 -61t77.5 -103t27 -146v-692h-156l-4 135q-82 -81 -166.5 -117t-177.5 -36q-86 0 -147 22 t-100.5 60.5t-58 90.5t-18.5 113zM317 274q0 -29 9 -55.5t29 -47t52 -32.5t78 -12q60 0 137.5 36.5t163.5 115.5v178h-221q-65 0 -112 -13t-77 -37t-44.5 -57.5t-14.5 -75.5zM0 1004zM459 1171l241 242h252l-319 -242h-174z" />
<glyph unicode="&#xe2;" d="M133 268q0 151 112.5 236.5t332.5 85.5h208v88q0 89 -57 142.5t-174 53.5q-85 0 -167.5 -19t-170.5 -54v157q33 12 73.5 23.5t85.5 20.5t94 14.5t99 5.5q91 0 164 -20t123.5 -61t77.5 -103t27 -146v-692h-156l-4 135q-82 -81 -166.5 -117t-177.5 -36q-86 0 -147 22 t-100.5 60.5t-58 90.5t-18.5 113zM317 274q0 -29 9 -55.5t29 -47t52 -32.5t78 -12q60 0 137.5 36.5t163.5 115.5v178h-221q-65 0 -112 -13t-77 -37t-44.5 -57.5t-14.5 -75.5zM0 1004zM248 1171l244 242h143l244 -242h-177l-141 121l-141 -121h-172z" />
<glyph unicode="&#xe3;" d="M133 268q0 151 112.5 236.5t332.5 85.5h208v88q0 89 -57 142.5t-174 53.5q-85 0 -167.5 -19t-170.5 -54v157q33 12 73.5 23.5t85.5 20.5t94 14.5t99 5.5q91 0 164 -20t123.5 -61t77.5 -103t27 -146v-692h-156l-4 135q-82 -81 -166.5 -117t-177.5 -36q-86 0 -147 22 t-100.5 60.5t-58 90.5t-18.5 113zM317 274q0 -29 9 -55.5t29 -47t52 -32.5t78 -12q60 0 137.5 36.5t163.5 115.5v178h-221q-65 0 -112 -13t-77 -37t-44.5 -57.5t-14.5 -75.5zM0 1004zM201 1268q43 72 97.5 108.5t123.5 36.5q58 0 98 -17t71 -37t58.5 -37t61.5 -17 q40 0 70.5 27.5t58.5 70.5l86 -86q-44 -72 -98 -108.5t-123 -36.5q-59 0 -98.5 16.5t-70.5 37t-58.5 37.5t-61.5 17q-41 0 -71 -27.5t-58 -70.5z" />
<glyph unicode="&#xe4;" d="M133 268q0 151 112.5 236.5t332.5 85.5h208v88q0 89 -57 142.5t-174 53.5q-85 0 -167.5 -19t-170.5 -54v157q33 12 73.5 23.5t85.5 20.5t94 14.5t99 5.5q91 0 164 -20t123.5 -61t77.5 -103t27 -146v-692h-156l-4 135q-82 -81 -166.5 -117t-177.5 -36q-86 0 -147 22 t-100.5 60.5t-58 90.5t-18.5 113zM317 274q0 -29 9 -55.5t29 -47t52 -32.5t78 -12q60 0 137.5 36.5t163.5 115.5v178h-221q-65 0 -112 -13t-77 -37t-44.5 -57.5t-14.5 -75.5zM0 1004zM236 1292q0 23 9 43.5t24 36t35.5 24.5t43.5 9t43.5 -9t36 -24.5t24.5 -36t9 -43.5 t-9 -43.5t-24.5 -35.5t-36 -24t-43.5 -9t-43.5 9t-35.5 24t-24 35.5t-9 43.5zM666 1292q0 23 9 43.5t24 36t35.5 24.5t43.5 9t43.5 -9t36 -24.5t24.5 -36t9 -43.5t-9 -43.5t-24.5 -35.5t-36 -24t-43.5 -9t-43.5 9t-35.5 24t-24 35.5t-9 43.5z" />
<glyph unicode="&#xe5;" d="M133 268q0 151 112.5 236.5t332.5 85.5h208v88q0 89 -57 142.5t-174 53.5q-85 0 -167.5 -19t-170.5 -54v157q33 12 73.5 23.5t85.5 20.5t94 14.5t99 5.5q91 0 164 -20t123.5 -61t77.5 -103t27 -146v-692h-156l-4 135q-82 -81 -166.5 -117t-177.5 -36q-86 0 -147 22 t-100.5 60.5t-58 90.5t-18.5 113zM317 274q0 -29 9 -55.5t29 -47t52 -32.5t78 -12q60 0 137.5 36.5t163.5 115.5v178h-221q-65 0 -112 -13t-77 -37t-44.5 -57.5t-14.5 -75.5zM0 1004zM348 1294q0 43 17 81t46 66t68 44t84 16t84 -16t68 -44t46 -66t17 -81t-17 -80.5 t-46 -65.5t-68 -44t-84 -16t-84 16t-68 44t-46 65.5t-17 80.5zM463 1294q0 -42 29 -71t71 -29q21 0 39 8t31.5 21.5t21.5 31.5t8 39t-8 39.5t-21.5 32t-31.5 21.5t-39 8t-39 -8t-31.5 -21.5t-21.5 -32t-8 -39.5z" />
<glyph unicode="&#xe6;" d="M31 268q0 75 19.5 134.5t60 100t103.5 62t151 21.5h120v84q0 101 -34.5 156t-118.5 55q-57 0 -120.5 -19.5t-125.5 -54.5v151q24 12 54.5 23.5t63.5 20.5t68 14.5t68 5.5q91 0 152.5 -29.5t87.5 -91.5q35 56 90.5 88.5t128.5 32.5q78 0 132.5 -32t89 -90t50.5 -139.5 t16 -180.5q0 -54 -1 -81t-3 -42h-444q0 -161 46.5 -246.5t154.5 -85.5q57 0 113 12t98 29v-139q-23 -10 -53 -18.5t-63 -14.5t-67 -9t-65 -3q-194 0 -268 174q-51 -82 -117 -128t-142 -46q-120 0 -182.5 73t-62.5 213zM195 274q0 -75 26 -112t74 -37q42 0 88.5 34t101.5 122 v176h-125q-87 0 -126 -50t-39 -133zM639 586h285q1 62 -5.5 116.5t-22 94.5t-41 63t-62.5 23q-39 0 -67.5 -23t-48 -62.5t-29 -94t-9.5 -117.5z" />
<glyph unicode="&#xe7;" d="M158 492q0 119 37 216t104 166t160 106.5t205 37.5q78 0 146 -11t130 -36v-166q-65 34 -132.5 49.5t-139.5 15.5q-67 0 -126.5 -25.5t-104.5 -73.5t-71 -117t-26 -156q0 -182 88.5 -272.5t245.5 -90.5q71 0 137.5 16t128.5 48v-162q-68 -26 -135 -38t-128 -13l-82 -281 h-152l66 295q-174 38 -262.5 163.5t-88.5 328.5z" />
<glyph unicode="&#xe8;" d="M117 500q0 106 30.5 200.5t89 166t143.5 113.5t193 42q105 0 186 -33t136.5 -93.5t84 -147t28.5 -193.5q0 -37 -1 -62t-3 -47h-705q0 -154 86 -236.5t248 -82.5q44 0 88 3.5t85 9.5t78.5 13.5t69.5 16.5v-143q-71 -20 -160.5 -32.5t-185.5 -12.5q-129 0 -222 35 t-152.5 101.5t-88 163t-28.5 218.5zM299 580h528v21q0 55 -13 101q-16 56 -49.5 96t-83.5 62.5t-116 22.5q-57 0 -104 -22t-81 -62t-55 -96t-26 -123zM0 1004zM174 1413h252l242 -242h-174z" />
<glyph unicode="&#xe9;" d="M117 500q0 106 30.5 200.5t89 166t143.5 113.5t193 42q105 0 186 -33t136.5 -93.5t84 -147t28.5 -193.5q0 -37 -1 -62t-3 -47h-705q0 -154 86 -236.5t248 -82.5q44 0 88 3.5t85 9.5t78.5 13.5t69.5 16.5v-143q-71 -20 -160.5 -32.5t-185.5 -12.5q-129 0 -222 35 t-152.5 101.5t-88 163t-28.5 218.5zM299 580h528v21q0 55 -13 101q-16 56 -49.5 96t-83.5 62.5t-116 22.5q-57 0 -104 -22t-81 -62t-55 -96t-26 -123zM0 1004zM459 1171l241 242h252l-319 -242h-174z" />
<glyph unicode="&#xea;" d="M117 500q0 106 30.5 200.5t89 166t143.5 113.5t193 42q105 0 186 -33t136.5 -93.5t84 -147t28.5 -193.5q0 -37 -1 -62t-3 -47h-705q0 -154 86 -236.5t248 -82.5q44 0 88 3.5t85 9.5t78.5 13.5t69.5 16.5v-143q-71 -20 -160.5 -32.5t-185.5 -12.5q-129 0 -222 35 t-152.5 101.5t-88 163t-28.5 218.5zM299 580h528v21q0 55 -13 101q-16 56 -49.5 96t-83.5 62.5t-116 22.5q-57 0 -104 -22t-81 -62t-55 -96t-26 -123zM0 1004zM248 1171l244 242h143l244 -242h-177l-141 121l-141 -121h-172z" />
<glyph unicode="&#xeb;" d="M117 500q0 106 30.5 200.5t89 166t143.5 113.5t193 42q105 0 186 -33t136.5 -93.5t84 -147t28.5 -193.5q0 -37 -1 -62t-3 -47h-705q0 -154 86 -236.5t248 -82.5q44 0 88 3.5t85 9.5t78.5 13.5t69.5 16.5v-143q-71 -20 -160.5 -32.5t-185.5 -12.5q-129 0 -222 35 t-152.5 101.5t-88 163t-28.5 218.5zM299 580h528v21q0 55 -13 101q-16 56 -49.5 96t-83.5 62.5t-116 22.5q-57 0 -104 -22t-81 -62t-55 -96t-26 -123zM0 1004zM236 1292q0 23 9 43.5t24 36t35.5 24.5t43.5 9t43.5 -9t36 -24.5t24.5 -36t9 -43.5t-9 -43.5t-24.5 -35.5 t-36 -24t-43.5 -9t-43.5 9t-35.5 24t-24 35.5t-9 43.5zM666 1292q0 23 9 43.5t24 36t35.5 24.5t43.5 9t43.5 -9t36 -24.5t24.5 -36t9 -43.5t-9 -43.5t-24.5 -35.5t-36 -24t-43.5 -9t-43.5 9t-35.5 24t-24 35.5t-9 43.5z" />
<glyph unicode="&#xec;" d="M172 0v145h330v715h-297v144h473v-859h299v-145h-805zM0 1004zM174 1413h252l242 -242h-174z" />
<glyph unicode="&#xed;" d="M172 0v145h330v715h-297v144h473v-859h299v-145h-805zM0 1004zM459 1171l241 242h252l-319 -242h-174z" />
<glyph unicode="&#xee;" d="M172 0v145h330v715h-297v144h473v-859h299v-145h-805zM0 1004zM248 1171l244 242h143l244 -242h-177l-141 121l-141 -121h-172z" />
<glyph unicode="&#xef;" d="M172 0v145h330v715h-297v144h473v-859h299v-145h-805zM0 1004zM236 1292q0 23 9 43.5t24 36t35.5 24.5t43.5 9t43.5 -9t36 -24.5t24.5 -36t9 -43.5t-9 -43.5t-24.5 -35.5t-36 -24t-43.5 -9t-43.5 9t-35.5 24t-24 35.5t-9 43.5zM666 1292q0 23 9 43.5t24 36t35.5 24.5 t43.5 9t43.5 -9t36 -24.5t24.5 -36t9 -43.5t-9 -43.5t-24.5 -35.5t-36 -24t-43.5 -9t-43.5 9t-35.5 24t-24 35.5t-9 43.5z" />
<glyph unicode="&#xf0;" d="M100 477q0 109 31 206.5t91 171t147.5 116.5t201.5 43q7 0 20 -1t25 -3q-20 29 -44 63.5t-50 69.5l-280 -60v146l186 39l-115 145h217l82 -104l297 61v-145l-204 -41q73 -101 129 -192.5t94 -175.5t58 -162t20 -152q0 -53 -8.5 -112.5t-28.5 -117t-54.5 -110t-86 -93 t-123 -64t-166.5 -23.5q-106 0 -188 35.5t-137.5 100.5t-84.5 156.5t-29 202.5zM279 487q0 -87 20.5 -154t57 -112.5t87 -68.5t109.5 -23q69 0 120.5 26.5t85.5 74t51 114.5t17 148q0 86 -26.5 173t-83.5 187q-42 9 -74 12.5t-61 3.5q-84 0 -142 -31t-93.5 -83.5 t-51.5 -121.5t-16 -145z" />
<glyph unicode="&#xf1;" d="M160 0v1004h155l7 -162q44 52 85 86.5t80.5 55.5t80.5 29.5t85 8.5q155 0 234.5 -91.5t79.5 -275.5v-655h-174v641q0 118 -44 174.5t-131 56.5q-32 0 -62.5 -9.5t-63.5 -33t-71.5 -63.5t-86.5 -100v-666h-174zM0 1004zM201 1268q43 72 97.5 108.5t123.5 36.5q58 0 98 -17 t71 -37t58.5 -37t61.5 -17q40 0 70.5 27.5t58.5 70.5l86 -86q-44 -72 -98 -108.5t-123 -36.5q-59 0 -98.5 16.5t-70.5 37t-58.5 37.5t-61.5 17q-41 0 -71 -27.5t-58 -70.5z" />
<glyph unicode="&#xf2;" d="M92 496q0 117 33 213.5t95 166t151 108t202 38.5q108 0 193.5 -33.5t145 -98t91 -160.5t31.5 -220q0 -117 -33 -214.5t-95 -167t-151 -108t-202 -38.5q-108 0 -193.5 33.5t-145 98.5t-91 161t-31.5 221zM270 502q0 -93 20.5 -163t58.5 -116.5t92 -70t122 -23.5 q78 0 133.5 30.5t91 81.5t52 118.5t16.5 142.5q0 93 -20.5 162.5t-58.5 116t-92.5 70t-121.5 23.5q-78 0 -133.5 -30.5t-91 -81.5t-52 -118.5t-16.5 -141.5zM0 1004zM174 1413h252l242 -242h-174z" />
<glyph unicode="&#xf3;" d="M92 496q0 117 33 213.5t95 166t151 108t202 38.5q108 0 193.5 -33.5t145 -98t91 -160.5t31.5 -220q0 -117 -33 -214.5t-95 -167t-151 -108t-202 -38.5q-108 0 -193.5 33.5t-145 98.5t-91 161t-31.5 221zM270 502q0 -93 20.5 -163t58.5 -116.5t92 -70t122 -23.5 q78 0 133.5 30.5t91 81.5t52 118.5t16.5 142.5q0 93 -20.5 162.5t-58.5 116t-92.5 70t-121.5 23.5q-78 0 -133.5 -30.5t-91 -81.5t-52 -118.5t-16.5 -141.5zM0 1004zM459 1171l241 242h252l-319 -242h-174z" />
<glyph unicode="&#xf4;" d="M92 496q0 117 33 213.5t95 166t151 108t202 38.5q108 0 193.5 -33.5t145 -98t91 -160.5t31.5 -220q0 -117 -33 -214.5t-95 -167t-151 -108t-202 -38.5q-108 0 -193.5 33.5t-145 98.5t-91 161t-31.5 221zM270 502q0 -93 20.5 -163t58.5 -116.5t92 -70t122 -23.5 q78 0 133.5 30.5t91 81.5t52 118.5t16.5 142.5q0 93 -20.5 162.5t-58.5 116t-92.5 70t-121.5 23.5q-78 0 -133.5 -30.5t-91 -81.5t-52 -118.5t-16.5 -141.5zM0 1004zM248 1171l244 242h143l244 -242h-177l-141 121l-141 -121h-172z" />
<glyph unicode="&#xf5;" d="M92 496q0 117 33 213.5t95 166t151 108t202 38.5q108 0 193.5 -33.5t145 -98t91 -160.5t31.5 -220q0 -117 -33 -214.5t-95 -167t-151 -108t-202 -38.5q-108 0 -193.5 33.5t-145 98.5t-91 161t-31.5 221zM270 502q0 -93 20.5 -163t58.5 -116.5t92 -70t122 -23.5 q78 0 133.5 30.5t91 81.5t52 118.5t16.5 142.5q0 93 -20.5 162.5t-58.5 116t-92.5 70t-121.5 23.5q-78 0 -133.5 -30.5t-91 -81.5t-52 -118.5t-16.5 -141.5zM0 1004zM201 1268q43 72 97.5 108.5t123.5 36.5q58 0 98 -17t71 -37t58.5 -37t61.5 -17q40 0 70.5 27.5t58.5 70.5 l86 -86q-44 -72 -98 -108.5t-123 -36.5q-59 0 -98.5 16.5t-70.5 37t-58.5 37.5t-61.5 17q-41 0 -71 -27.5t-58 -70.5z" />
<glyph unicode="&#xf6;" d="M92 496q0 117 33 213.5t95 166t151 108t202 38.5q108 0 193.5 -33.5t145 -98t91 -160.5t31.5 -220q0 -117 -33 -214.5t-95 -167t-151 -108t-202 -38.5q-108 0 -193.5 33.5t-145 98.5t-91 161t-31.5 221zM270 502q0 -93 20.5 -163t58.5 -116.5t92 -70t122 -23.5 q78 0 133.5 30.5t91 81.5t52 118.5t16.5 142.5q0 93 -20.5 162.5t-58.5 116t-92.5 70t-121.5 23.5q-78 0 -133.5 -30.5t-91 -81.5t-52 -118.5t-16.5 -141.5zM0 1004zM236 1292q0 23 9 43.5t24 36t35.5 24.5t43.5 9t43.5 -9t36 -24.5t24.5 -36t9 -43.5t-9 -43.5t-24.5 -35.5 t-36 -24t-43.5 -9t-43.5 9t-35.5 24t-24 35.5t-9 43.5zM666 1292q0 23 9 43.5t24 36t35.5 24.5t43.5 9t43.5 -9t36 -24.5t24.5 -36t9 -43.5t-9 -43.5t-24.5 -35.5t-36 -24t-43.5 -9t-43.5 9t-35.5 24t-24 35.5t-9 43.5z" />
<glyph unicode="&#xf7;" d="M84 469v152h958v-152h-958zM428 154q0 27 10.5 51.5t28.5 42.5t42 28.5t52 10.5q27 0 51 -10.5t41.5 -28.5t28 -42.5t10.5 -51.5t-10.5 -51t-28 -41.5t-41.5 -28t-51 -10.5q-28 0 -52 10.5t-42 28t-28.5 41.5t-10.5 51zM428 936q0 27 10.5 51t28.5 41.5t42 28t52 10.5 q27 0 51 -10.5t41.5 -28t28 -41.5t10.5 -51q0 -28 -10.5 -52t-28 -42t-41.5 -28.5t-51 -10.5q-28 0 -52 10.5t-42 28.5t-28.5 42t-10.5 52z" />
<glyph unicode="&#xf8;" d="M92 496q0 121 32.5 218.5t94.5 165.5t151 105t203 37q44 0 91 -6l67 203h146l-82 -244q113 -54 176 -170.5t63 -294.5q0 -122 -32.5 -220t-94.5 -166.5t-151 -105t-203 -36.5q-45 0 -88 6l-68 -203h-145l82 244q-114 55 -178 171.5t-64 295.5zM266 502q0 -113 30 -193 t89 -125l229 688q-12 2 -27.5 3.5t-29.5 1.5q-78 0 -133 -30t-90 -81.5t-51.5 -119.5t-16.5 -144zM514 131q12 -2 27.5 -3t27.5 -1q78 0 133 30t90 81.5t51.5 119.5t16.5 144q0 112 -30.5 192t-86.5 125z" />
<glyph unicode="&#xf9;" d="M160 348v656h174v-642q0 -231 174 -231q32 0 62.5 9.5t64 33t72 63.5t86.5 101v666h174v-1004h-156l-6 162q-45 -52 -85.5 -86.5t-80.5 -55.5t-80.5 -29.5t-85.5 -8.5q-155 0 -234 91t-79 275zM0 1004zM174 1413h252l242 -242h-174z" />
<glyph unicode="&#xfa;" d="M160 348v656h174v-642q0 -231 174 -231q32 0 62.5 9.5t64 33t72 63.5t86.5 101v666h174v-1004h-156l-6 162q-45 -52 -85.5 -86.5t-80.5 -55.5t-80.5 -29.5t-85.5 -8.5q-155 0 -234 91t-79 275zM0 1004zM459 1171l241 242h252l-319 -242h-174z" />
<glyph unicode="&#xfb;" d="M160 348v656h174v-642q0 -231 174 -231q32 0 62.5 9.5t64 33t72 63.5t86.5 101v666h174v-1004h-156l-6 162q-45 -52 -85.5 -86.5t-80.5 -55.5t-80.5 -29.5t-85.5 -8.5q-155 0 -234 91t-79 275zM0 1004zM248 1171l244 242h143l244 -242h-177l-141 121l-141 -121h-172z" />
<glyph unicode="&#xfc;" d="M160 348v656h174v-642q0 -231 174 -231q32 0 62.5 9.5t64 33t72 63.5t86.5 101v666h174v-1004h-156l-6 162q-45 -52 -85.5 -86.5t-80.5 -55.5t-80.5 -29.5t-85.5 -8.5q-155 0 -234 91t-79 275zM0 1004zM236 1292q0 23 9 43.5t24 36t35.5 24.5t43.5 9t43.5 -9t36 -24.5 t24.5 -36t9 -43.5t-9 -43.5t-24.5 -35.5t-36 -24t-43.5 -9t-43.5 9t-35.5 24t-24 35.5t-9 43.5zM666 1292q0 23 9 43.5t24 36t35.5 24.5t43.5 9t43.5 -9t36 -24.5t24.5 -36t9 -43.5t-9 -43.5t-24.5 -35.5t-36 -24t-43.5 -9t-43.5 9t-35.5 24t-24 35.5t-9 43.5z" />
<glyph unicode="&#xfd;" d="M59 -254q22 -3 48 -5.5t55 -2.5q48 0 89.5 14t78.5 45.5t71 81.5t66 121l-401 1004h198l254 -664l51 -156l58 160l235 660h191l-342 -898q-53 -137 -109.5 -236t-123.5 -162.5t-147 -93.5t-179 -30q-26 0 -47 1t-46 3v158zM0 1004zM459 1171l241 242h252l-319 -242h-174z " />
<glyph unicode="&#xfe;" d="M160 -410v1823h174v-389l-8 -186q75 101 160.5 142.5t183.5 41.5q86 0 151 -36t109 -101.5t66 -158t22 -206.5q0 -125 -34.5 -223.5t-98 -167t-154.5 -105t-205 -36.5q-48 0 -95.5 5t-96.5 17v-420h-174zM334 172q51 -20 104 -31.5t101 -11.5q60 0 114.5 19t96 63.5 t66 118t24.5 182.5q0 79 -11.5 145t-36.5 113t-64 73.5t-93 26.5q-33 0 -67 -10.5t-70.5 -35t-77 -65t-86.5 -100.5v-487z" />
<glyph unicode="&#xff;" d="M59 -254q22 -3 48 -5.5t55 -2.5q48 0 89.5 14t78.5 45.5t71 81.5t66 121l-401 1004h198l254 -664l51 -156l58 160l235 660h191l-342 -898q-53 -137 -109.5 -236t-123.5 -162.5t-147 -93.5t-179 -30q-26 0 -47 1t-46 3v158zM0 1004zM236 1292q0 23 9 43.5t24 36t35.5 24.5 t43.5 9t43.5 -9t36 -24.5t24.5 -36t9 -43.5t-9 -43.5t-24.5 -35.5t-36 -24t-43.5 -9t-43.5 9t-35.5 24t-24 35.5t-9 43.5zM666 1292q0 23 9 43.5t24 36t35.5 24.5t43.5 9t43.5 -9t36 -24.5t24.5 -36t9 -43.5t-9 -43.5t-24.5 -35.5t-36 -24t-43.5 -9t-43.5 9t-35.5 24 t-24 35.5t-9 43.5z" />
<glyph unicode="&#x131;" d="M172 0v145h330v715h-297v144h473v-859h299v-145h-805z" />
<glyph unicode="&#x152;" d="M31 647q0 174 38.5 301t103.5 210t152 123t185 40q24 0 55 -2t61.5 -5t57 -5t41.5 -2h369v-146h-330v-411h309v-146h-309v-457h330v-147h-365q-74 0 -127 -7t-96 -7q-122 0 -211.5 43.5t-148 127.5t-87 207t-28.5 283zM209 653q0 -252 77.5 -386t229.5 -134q20 0 38 2.5 t38 7.5v1022q-14 3 -35.5 6t-46.5 3q-80 0 -137 -40.5t-93.5 -111t-53.5 -165.5t-17 -204z" />
<glyph unicode="&#x153;" d="M39 494q0 122 20 219.5t59.5 166t99.5 105.5t140 37q78 0 131.5 -42t94.5 -132q18 41 39 73.5t48 55t61.5 34t78.5 11.5q66 0 118 -31t87.5 -91t54.5 -147t19 -198q0 -37 -0.5 -60.5t-2.5 -35.5h-423q0 -161 46 -244.5t140 -83.5q57 0 110.5 12t94.5 29v-145 q-45 -20 -102.5 -32.5t-118.5 -12.5q-91 0 -161 43.5t-102 132.5q-35 -85 -92.5 -130.5t-134.5 -45.5q-78 0 -135 29t-95 91.5t-56.5 159.5t-18.5 232zM203 500q0 -101 8.5 -172t26.5 -115.5t46 -65t66 -20.5q139 0 139 373q0 103 -9.5 174.5t-27.5 116.5t-44 65.5t-58 20.5 q-35 0 -62.5 -21.5t-46.5 -67.5t-28.5 -117t-9.5 -171zM664 588h264q1 78 -9 133t-27 89.5t-40.5 50.5t-50.5 16q-69 0 -102 -76t-35 -213z" />
<glyph unicode="&#x178;" d="M0 1307h215l260 -478l96 -192l88 174l263 496h204l-473 -840v-467h-180v471zM0 1307zM238 1552q0 22 8.5 42t22.5 34t33.5 22.5t41.5 8.5t41.5 -8.5t34 -22.5t23 -34t8.5 -42t-8.5 -41.5t-23 -33.5t-34 -22.5t-41.5 -8.5q-45 0 -75.5 30.5t-30.5 75.5zM676 1552 q0 22 8.5 42t22.5 34t33.5 22.5t41.5 8.5t42 -8.5t34 -22.5t22.5 -34t8.5 -42t-8.5 -41.5t-22.5 -33.5t-34 -22.5t-42 -8.5q-45 0 -75.5 30.5t-30.5 75.5z" />
<glyph unicode="&#x2c6;" d="M0 1004zM248 1171l244 242h143l244 -242h-177l-141 121l-141 -121h-172z" />
<glyph unicode="&#x2da;" d="M0 1004zM348 1294q0 43 17 81t46 66t68 44t84 16t84 -16t68 -44t46 -66t17 -81t-17 -80.5t-46 -65.5t-68 -44t-84 -16t-84 16t-68 44t-46 65.5t-17 80.5zM463 1294q0 -42 29 -71t71 -29q21 0 39 8t31.5 21.5t21.5 31.5t8 39t-8 39.5t-21.5 32t-31.5 21.5t-39 8t-39 -8 t-31.5 -21.5t-21.5 -32t-8 -39.5z" />
<glyph unicode="&#x2dc;" d="M0 1004zM201 1268q43 72 97.5 108.5t123.5 36.5q58 0 98 -17t71 -37t58.5 -37t61.5 -17q40 0 70.5 27.5t58.5 70.5l86 -86q-44 -72 -98 -108.5t-123 -36.5q-59 0 -98.5 16.5t-70.5 37t-58.5 37.5t-61.5 17q-41 0 -71 -27.5t-58 -70.5z" />
<glyph unicode="&#x3bc;" d="M160 -410v1414h174v-639q0 -232 174 -232q30 0 62 10t63.5 32.5t67 62t79.5 100.5v666h174v-689q0 -51 5 -85t17.5 -54.5t32.5 -29.5t50 -9h18v-139q-14 -3 -31.5 -5.5t-37.5 -2.5q-50 0 -85.5 12.5t-59.5 36t-38.5 57.5t-23.5 76q-43 -57 -83 -93.5t-79.5 -57.5t-75 -29 t-68.5 -8q-52 0 -96.5 18.5t-78.5 57.5l14 -173v-297h-174z" />
<glyph unicode="&#x2000;" horiz-adv-x="870" />
<glyph unicode="&#x2001;" horiz-adv-x="1740" />
<glyph unicode="&#x2002;" horiz-adv-x="870" />
<glyph unicode="&#x2003;" horiz-adv-x="1740" />
<glyph unicode="&#x2004;" horiz-adv-x="580" />
<glyph unicode="&#x2005;" horiz-adv-x="435" />
<glyph unicode="&#x2006;" horiz-adv-x="290" />
<glyph unicode="&#x2007;" horiz-adv-x="290" />
<glyph unicode="&#x2008;" horiz-adv-x="217" />
<glyph unicode="&#x2009;" horiz-adv-x="348" />
<glyph unicode="&#x200a;" horiz-adv-x="96" />
<glyph unicode="&#x2011;" d="M264 463v164h598v-164h-598z" />
<glyph unicode="&#x2012;" d="M264 463v164h598v-164h-598z" />
<glyph unicode="&#x2013;" d="M133 469v152h860v-152h-860z" />
<glyph unicode="&#x2014;" d="M-4 469v152h1134v-152h-1134z" />
<glyph unicode="&#x2018;" d="M406 1001q0 83 30 160t90.5 135.5t151 93.5t211.5 35v-137q-51 1 -99 -9t-84.5 -31.5t-58.5 -53.5t-22 -74t14.5 -67.5t32.5 -47.5t32.5 -47.5t14.5 -66.5q0 -21 -8 -44t-24.5 -42t-42 -31t-60.5 -12q-36 0 -68 14.5t-56.5 44.5t-39 75t-14.5 105z" />
<glyph unicode="&#x2019;" d="M238 762v137q51 -2 99 8.5t84.5 32t58.5 53.5t22 74t-14.5 68t-32.5 48t-32.5 47t-14.5 66q0 22 8 44.5t24.5 41.5t42 31t60.5 12t67.5 -14.5t57 -44t39 -74.5t14.5 -106q0 -83 -30.5 -159.5t-91 -135.5t-151 -94t-210.5 -35z" />
<glyph unicode="&#x201a;" d="M238 -205q51 -2 99 9t84.5 32.5t58.5 53.5t22 73q0 42 -14.5 68t-32.5 48t-32.5 47t-14.5 67q0 21 8 44t24.5 42t42 31t60.5 12t67.5 -14.5t57 -44.5t39 -75t14.5 -106q0 -83 -30.5 -159.5t-91 -135.5t-151 -94t-210.5 -35v137z" />
<glyph unicode="&#x201c;" d="M104 1028q0 78 28.5 149.5t84 126.5t138 88t190.5 33v-129q-44 1 -85.5 -8.5t-74 -29.5t-52.5 -50t-20 -69t13 -63t29 -45t29 -44.5t13 -62.5q0 -20 -7.5 -41.5t-23 -39t-39.5 -29t-57 -11.5t-63 14t-53 42t-36.5 70t-13.5 99zM629 1028q0 78 28 149.5t83.5 126.5t138 88 t190.5 33v-129q-44 1 -85.5 -8.5t-74 -29.5t-52 -50t-19.5 -69t13 -63t29 -45t29 -44.5t13 -62.5q0 -20 -7.5 -41.5t-23 -39t-39.5 -29t-57 -11.5t-63 14t-53 42t-36.5 70t-13.5 99z" />
<glyph unicode="&#x201d;" d="M57 803v129q44 -2 85.5 8t74 30t52.5 50.5t20 69.5t-13 62.5t-29 44.5t-29 45t-13 63q0 20 7.5 41t23 38.5t39.5 29t57 11.5t63 -14t53 -41.5t36.5 -70t13.5 -99.5q0 -78 -28.5 -149.5t-84 -126.5t-138 -88t-190.5 -33zM582 803v129q43 -2 85 8t74 30t52 50.5t20 69.5 t-13 62.5t-29 44.5t-29 45t-13 63q0 20 7.5 41t23 38.5t39.5 29t57 11.5t63 -14t53 -41.5t36.5 -70t13.5 -99.5q0 -78 -28.5 -149.5t-84 -126.5t-137.5 -88t-190 -33z" />
<glyph unicode="&#x201e;" d="M57 -197q44 -2 85.5 8t74 30.5t52.5 50.5t20 69t-13 63t-29 45t-29 44.5t-13 62.5q0 20 7.5 41.5t23 39t39.5 29t57 11.5t63 -14t53 -42t36.5 -70t13.5 -99q0 -78 -28.5 -149.5t-84 -127t-138 -88.5t-190.5 -33v129zM582 -197q43 -2 85 8t74 30.5t52 50.5t20 69t-13 63 t-29 45t-29 44.5t-13 62.5q0 20 7.5 41.5t23 39t39.5 29t57 11.5t63 -14t53 -42t36.5 -70t13.5 -99q0 -78 -28.5 -149.5t-84 -127t-137.5 -88.5t-190 -33v129z" />
<glyph unicode="&#x2022;" d="M258 565q0 63 24 118.5t65.5 97t97 65.5t118.5 24t118.5 -24t97 -65.5t65.5 -97t24 -118.5t-24 -118.5t-65.5 -97t-97 -65.5t-118.5 -24t-118.5 24t-97 65.5t-65.5 97t-24 118.5z" />
<glyph unicode="&#x2026;" d="M59 102q0 25 9 47t24.5 38.5t37.5 26t48 9.5t48 -9.5t37.5 -25.5t24.5 -38.5t9 -47.5q0 -24 -9 -46t-24.5 -38.5t-37.5 -26t-48 -9.5t-48 9.5t-37.5 25.5t-24.5 38t-9 47zM444 102q0 25 9 47t24.5 38.5t37.5 26t48 9.5t48 -9.5t37.5 -25.5t24.5 -38.5t9 -47.5 q0 -24 -9 -46t-24.5 -38.5t-37.5 -26t-48 -9.5t-48 9.5t-37.5 25.5t-24.5 38t-9 47zM829 102q0 25 9 47t24.5 38.5t37.5 26t48 9.5t48 -9.5t37.5 -25.5t24.5 -38.5t9 -47.5q0 -24 -9 -46t-24.5 -38.5t-37.5 -26t-48 -9.5t-48 9.5t-37.5 25.5t-24.5 38t-9 47z" />
<glyph unicode="&#x202f;" horiz-adv-x="348" />
<glyph unicode="&#x2039;" d="M288 545l359 446l134 -97l-293 -349l293 -349l-134 -98z" />
<glyph unicode="&#x203a;" d="M345 195l293 349l-293 349l134 98l359 -447l-359 -446z" />
<glyph unicode="&#x205f;" horiz-adv-x="435" />
<glyph unicode="&#x2081;" d="M227 420l312 156h139v-646h201v-145h-613v145h238v467l-219 -108z" />
<glyph unicode="&#x2082;" d="M246 -72l217 168q58 45 94.5 77t57.5 57.5t28.5 48t7.5 49.5q0 46 -33.5 76t-99.5 30q-51 0 -97 -18.5t-83 -50.5l-86 106q54 54 128.5 83.5t158.5 29.5q63 0 117.5 -15.5t94 -46.5t62.5 -76.5t23 -105.5q0 -47 -14 -88t-42.5 -79.5t-70.5 -75.5t-97 -76l-114 -82h385 v-154h-637v143z" />
<glyph unicode="&#x2083;" d="M274 -75q34 -8 89.5 -12t115.5 -4q91 0 145 28.5t54 80.5q0 24 -10 43.5t-33.5 33t-62.5 21t-97 7.5h-82v129h76q49 0 82 8.5t53 23t28.5 34t8.5 40.5q0 19 -7 34.5t-23 27t-43.5 18t-67.5 6.5q-54 0 -109 -9t-100 -23v141q24 7 53.5 12.5t61 9.5t64 6.5t62.5 2.5 q148 0 218.5 -53.5t70.5 -141.5q0 -71 -33 -115.5t-92 -70.5q38 -10 68.5 -25t52.5 -36.5t33.5 -50.5t11.5 -68q0 -56 -25 -103t-73.5 -80.5t-121.5 -52t-169 -18.5q-29 0 -58 1t-55 3t-48 5t-38 7v140z" />
<glyph unicode="&#x20ac;" d="M51 422v136h144q-2 19 -2 38v42q0 25 1 49.5t3 48.5h-146v136h166q23 105 68 189t109 142.5t145.5 90t179.5 31.5q80 0 148.5 -16t133.5 -47v-171q-63 38 -130.5 58.5t-147.5 20.5q-124 0 -204 -76t-118 -222h402v-136h-422q-2 -21 -3 -42.5t-1 -43.5q0 -25 1 -47t1 -45 h424v-136h-404q32 -143 111.5 -214t216.5 -71q74 0 142.5 19.5t131.5 54.5v-164q-69 -32 -141.5 -48.5t-150.5 -16.5q-211 0 -335.5 110t-162.5 330h-160z" />
<glyph unicode="&#x2122;" d="M10 1202v105h406v-105h-133v-424h-136v424h-137zM442 778l76 529h158l80 -285l18 -86l17 76l86 295h159l80 -529h-135l-37 285l-12 86l-19 -76l-82 -295h-129l-79 301l-19 70l-2 -57l-43 -314h-117z" />
<glyph unicode="&#xe000;" horiz-adv-x="1004" d="M0 1005h1005v-1005h-1005v1005z" />
<glyph unicode="&#xfb01;" d="M0 1004zM47 758v145h178v121q0 201 114.5 301t340.5 100q53 0 120 -8.5t130 -23.5v-150q-60 17 -128 27t-128 10q-134 0 -204.5 -61t-70.5 -185v-131h564v-903h-175v758h-389v-758h-174v758h-178z" />
<glyph unicode="&#xfb02;" d="M0 1004zM47 758v145h178v119q0 201 114 301t335 100q65 0 137.5 -6.5t151.5 -23.5v-1393h-175v1274q-30 5 -59 6.5t-61 1.5q-137 0 -203 -63t-66 -187v-129h213v-145h-213v-758h-174v758h-178z" />
<glyph unicode="&#xfb03;" horiz-adv-x="3378" d="M2424 0v145h330v715h-297v144h473v-859h299v-145h-805zM2678 1288q0 29 10.5 53.5t29 43.5t43.5 29.5t54 10.5t54 -10.5t43.5 -29.5t29 -43.5t10.5 -53.5q0 -28 -10.5 -53t-29 -44t-43.5 -29.5t-54 -10.5t-54 10.5t-43.5 29.5t-29 44t-10.5 53zM1126 1004zM1206 713v145 h323v166q0 401 418 401q104 0 230 -24v-150q-137 29 -236 29q-235 0 -235 -246v-176h440v-145h-440v-713h-177v713h-323zM0 1004zM80 713v145h323v166q0 401 418 401q104 0 230 -24v-150q-137 29 -236 29q-235 0 -235 -246v-176h440v-145h-440v-713h-177v713h-323z" />
<glyph unicode="&#xfb04;" horiz-adv-x="3378" d="M2424 0v145h330v1125h-297v143h473v-1268h299v-145h-805zM1126 1004zM1206 713v145h323v166q0 401 418 401q104 0 230 -24v-150q-137 29 -236 29q-235 0 -235 -246v-176h440v-145h-440v-713h-177v713h-323zM0 1004zM80 713v145h323v166q0 401 418 401q104 0 230 -24v-150 q-137 29 -236 29q-235 0 -235 -246v-176h440v-145h-440v-713h-177v713h-323z" />
<glyph d="M0 1307zM205 1659h252l211 -213h-179z" />
<glyph d="M0 1307zM459 1446l211 213h252l-285 -213h-178z" />
<glyph d="M0 1307zM248 1446l231 213h168l232 -213h-183l-135 102l-135 -102h-178z" />
<glyph d="M0 1307zM201 1526q43 72 97.5 108.5t123.5 36.5q58 0 98 -17t71 -37t58.5 -37t61.5 -17q40 0 70.5 27.5t58.5 70.5l86 -82q-44 -72 -98 -108.5t-123 -36.5q-59 0 -98.5 17t-70.5 37t-58.5 37t-61.5 17q-41 0 -71 -27.5t-58 -70.5z" />
<glyph d="M0 1307zM238 1552q0 22 8.5 42t22.5 34t33.5 22.5t41.5 8.5t41.5 -8.5t34 -22.5t23 -34t8.5 -42t-8.5 -41.5t-23 -33.5t-34 -22.5t-41.5 -8.5q-45 0 -75.5 30.5t-30.5 75.5zM676 1552q0 22 8.5 42t22.5 34t33.5 22.5t41.5 8.5t42 -8.5t34 -22.5t22.5 -34t8.5 -42 t-8.5 -41.5t-22.5 -33.5t-34 -22.5t-42 -8.5q-45 0 -75.5 30.5t-30.5 75.5z" />
<glyph d="M0 1307zM362 1550q0 42 15.5 77t42.5 60.5t63.5 39t79.5 13.5t80 -13.5t64 -39t42 -60.5t15 -77q0 -41 -15 -76.5t-42 -61t-64 -40t-80 -14.5t-79.5 14.5t-63.5 40t-42.5 61t-15.5 76.5zM473 1550q0 -40 25 -65t65 -25q42 0 66 25t24 65q0 41 -24 64.5t-66 23.5 q-40 0 -65 -23.5t-25 -64.5z" />
</font>
</defs>
</svg>
