<?xml version="1.0" standalone="no"?>
<!DOCTYPE svg PUBLIC "-//W3C//DTD SVG 1.1//EN" "http://www.w3.org/Graphics/SVG/1.1/DTD/svg11.dtd" >
<svg xmlns="http://www.w3.org/2000/svg">
<metadata></metadata>
<defs>
<font id="source_code_proregular" horiz-adv-x="1228" >
<font-face units-per-em="2048" ascent="1536" descent="-512" />
<missing-glyph horiz-adv-x="500" />
<glyph horiz-adv-x="0" />
<glyph horiz-adv-x="682" />
<glyph unicode=" " />
<glyph unicode="!" d="M465 135q0 70 43 113t106 43t106.5 -43t43.5 -113q0 -72 -43.5 -116t-106.5 -44t-106 44t-43 116zM532 1372h164l-4 -192l-20 -705h-115l-20 705z" />
<glyph unicode="&#x22;" d="M266 1407h226l-5 -225l-51 -461h-114l-52 461zM737 1407h226l-5 -225l-51 -461h-114l-52 461z" />
<glyph unicode="#" d="M178 418v117h178l37 303h-174v118h189l47 375h108l-45 -375h270l48 375h108l-45 -375h164v-118h-178l-37 -303h174v-117h-188l-52 -418h-110l51 418h-270l-52 -418h-110l51 418h-164zM467 535h270l37 303h-270z" />
<glyph unicode="$" d="M174 231l80 117q192 -139 381 -139q118 0 183 49t65 129q0 45 -28 82.5t-73.5 63t-104 51.5t-119.5 47.5t-119.5 52.5t-104 65.5t-73.5 86.5t-28 116q0 128 90.5 211.5t241.5 98.5v270h123v-268q104 -8 180 -48t146 -108l-90 -98q-78 61 -142 88.5t-159 27.5 q-103 0 -164.5 -46t-61.5 -124q0 -45 36 -81.5t93.5 -62.5t127 -51t139 -56.5t127 -70t93.5 -99t36 -136.5q0 -131 -99.5 -219.5t-261.5 -105.5v-299h-123v297q-110 9 -213.5 52.5t-177.5 106.5z" />
<glyph unicode="%" d="M55 997q0 156 79 245t206 89t206 -89t79 -245q0 -157 -79 -248.5t-206 -91.5t-206 91.5t-79 248.5zM57 158l375 385l68 -62l-342 -415zM180 997q0 -115 45 -176t115 -61t115 61t45 176q0 117 -44.5 175.5t-115.5 58.5t-115.5 -58.5t-44.5 -175.5zM604 315q0 156 79 245 t206 89t206 -89t79 -245q0 -157 -79 -248.5t-206 -91.5t-206 91.5t-79 248.5zM729 315q0 -115 45 -176t115 -61t115 61t45 176q0 117 -44.5 175.5t-115.5 58.5t-115.5 -58.5t-44.5 -175.5zM729 862l342 416l100 -92l-374 -385z" />
<glyph unicode="&#x26;" d="M86 348q0 63 20 119.5t58 104.5t78 84t96 77q-90 175 -90 318q0 136 82 226.5t213 90.5q122 0 191 -72.5t69 -193.5q0 -36 -9.5 -71t-22 -62.5t-39 -60t-44.5 -52.5t-56 -52t-56.5 -47t-61.5 -48q129 -206 328 -377q111 159 170 393h155q-78 -282 -217 -481 q122 -94 232 -129l-47 -140q-136 42 -281 154q-161 -154 -367 -154q-178 0 -289.5 104.5t-111.5 268.5zM250 358q0 -110 74 -178.5t184 -68.5q123 0 235 106q-202 180 -342 401q-73 -64 -112 -126t-39 -134zM393 1053q0 -106 62 -236q67 48 108 84.5t72 89.5t31 109 q0 64 -30 105.5t-93 41.5q-69 0 -109.5 -54.5t-40.5 -139.5z" />
<glyph unicode="'" d="M502 1407h225l-4 -225l-51 -461h-115l-51 461z" />
<glyph unicode="(" d="M426 569q0 289 120.5 524t340.5 406l92 -86q-205 -173 -303 -379.5t-98 -464.5t98 -464t303 -379l-92 -86q-220 171 -340.5 405.5t-120.5 523.5z" />
<glyph unicode=")" d="M250 -274q205 173 303 379t98 464t-98 464.5t-303 379.5l92 86q220 -171 340.5 -406t120.5 -524t-120.5 -523.5t-340.5 -405.5z" />
<glyph unicode="*" d="M172 770l33 94l342 -112l18 387h99l18 -387l342 112l33 -94l-332 -143l221 -338l-86 -62l-246 326l-245 -326l-86 62l221 338z" />
<glyph unicode="+" d="M174 612v127h373v400h135v-400h373v-127h-373v-399h-135v399h-373z" />
<glyph unicode="," d="M403 -330q128 58 191.5 140t67.5 202q-12 -4 -39 -4q-69 0 -114.5 40t-45.5 114q0 72 47.5 113.5t116.5 41.5q89 0 136.5 -70t47.5 -192q0 -177 -94 -302t-266 -189z" />
<glyph unicode="-" d="M174 612v127h881v-127h-881z" />
<glyph unicode="." d="M449 147q0 77 47.5 126t117.5 49t118 -49t48 -126q0 -75 -48 -123.5t-118 -48.5t-117.5 48.5t-47.5 123.5z" />
<glyph unicode="/" d="M203 -328l671 1782h152l-672 -1782h-151z" />
<glyph unicode="0" d="M145 657q0 325 124 499.5t345 174.5t345 -174.5t124 -499.5q0 -324 -124.5 -503t-344.5 -179t-344.5 179t-124.5 503zM303 657q0 -271 84 -408.5t227 -137.5t227.5 137.5t84.5 408.5q0 272 -84.5 405.5t-227.5 133.5t-227 -133.5t-84 -405.5zM487 672q0 61 37 98t90 37 t90 -37t37 -98q0 -62 -37 -99.5t-90 -37.5t-90 37.5t-37 99.5z" />
<glyph unicode="1" d="M203 0v139h368v963h-280v108q190 27 323 97h125v-1168h340v-139h-876z" />
<glyph unicode="2" d="M141 1133q95 97 197.5 147.5t232.5 50.5q195 0 310.5 -105.5t115.5 -279.5q0 -60 -18.5 -121.5t-59.5 -127.5t-88 -127t-123 -138.5t-143.5 -141.5t-169.5 -157q164 12 244 12h430v-145h-919v100q127 112 206 184t166.5 157t137.5 144.5t94.5 124t63 119.5t18.5 109 q0 117 -72.5 186.5t-212.5 69.5q-162 0 -313 -158z" />
<glyph unicode="3" d="M117 160l86 110q163 -155 375 -155q136 0 224.5 66t88.5 173q0 260 -475 260v129q220 0 324 67t104 177q0 95 -72.5 151t-193.5 56q-175 0 -322 -133l-90 106q190 164 418 164q190 0 311 -89t121 -243q0 -113 -75 -191t-204 -120v-8q140 -30 232 -117t92 -215 q0 -112 -64.5 -198t-171 -130.5t-237.5 -44.5q-286 0 -471 185z" />
<glyph unicode="4" d="M80 360v113l653 834h180v-811h203v-136h-203v-360h-159v360h-674zM266 496h488v405q3 104 10 232h-10q-23 -36 -70.5 -102t-62.5 -89z" />
<glyph unicode="5" d="M115 154l84 110q77 -70 162.5 -109.5t205.5 -39.5q141 0 236.5 82.5t95.5 216.5t-86.5 210t-234.5 76q-76 0 -133.5 -18.5t-133.5 -60.5l-90 57l43 629h740v-146h-590l-35 -387q122 53 242 53q96 0 176 -24.5t141.5 -73.5t96 -128.5t34.5 -182.5q0 -136 -69.5 -239 t-177.5 -153.5t-236 -50.5q-159 0 -270 49t-201 130z" />
<glyph unicode="6" d="M158 604q0 153 29.5 276.5t80.5 206.5t121.5 138.5t149 80.5t166.5 25q215 0 364 -139l-94 -105q-111 103 -260 103q-65 0 -121.5 -17.5t-107.5 -59t-87.5 -105t-59 -160t-24.5 -219.5q81 80 178 125t193 45q187 0 297.5 -104t110.5 -300q0 -121 -60.5 -218.5 t-160 -149.5t-216.5 -52q-223 0 -361 162.5t-138 466.5zM322 496q19 -188 105.5 -287.5t229.5 -99.5q119 0 198 79.5t79 206.5q0 134 -72 205.5t-207 71.5q-84 0 -171.5 -43.5t-161.5 -132.5z" />
<glyph unicode="7" d="M143 1161v146h947v-105q-172 -196 -267.5 -377.5t-135 -368.5t-48.5 -456h-176q17 372 113.5 628.5t320.5 532.5h-754z" />
<glyph unicode="8" d="M139 334q0 215 281 348v8q-199 124 -199 305q0 149 114 242.5t290 93.5q189 0 297 -96.5t108 -251.5q0 -87 -55.5 -168.5t-143.5 -142.5v-8q60 -30 101 -58t79 -68t57 -93.5t19 -120.5q0 -151 -125.5 -250t-343.5 -99t-348.5 100.5t-130.5 258.5zM293 350 q0 -110 90.5 -180t239.5 -70q143 0 223 63t80 167q0 49 -20.5 88.5t-44 64.5t-81.5 53t-92.5 40.5t-118.5 40.5q-35 12 -53 18q-106 -59 -164.5 -126.5t-58.5 -158.5zM375 995q0 -56 25 -100t76.5 -77.5t106.5 -56t138 -48.5q164 121 164 262q0 101 -69.5 166t-194.5 65 q-109 0 -177.5 -58t-68.5 -153z" />
<glyph unicode="9" d="M137 911q0 121 60.5 218.5t159 149.5t214.5 52q108 0 199 -40t159 -116.5t106 -197.5t38 -275q0 -189 -45 -333t-123 -228t-173.5 -125t-205.5 -41q-212 0 -364 138l94 106q109 -104 260 -104q64 0 120 18t106.5 59.5t87 105t59 160t24.5 218.5q-81 -80 -176.5 -124 t-193.5 -44q-187 0 -296.5 103.5t-109.5 299.5zM297 911q0 -134 71 -205t207 -71q82 0 170 43t164 131q-20 191 -105.5 290t-230.5 99q-119 0 -197.5 -80t-78.5 -207z" />
<glyph unicode=":" d="M449 147q0 77 47.5 126t117.5 49t118 -49t48 -126q0 -75 -48 -123.5t-118 -48.5t-117.5 48.5t-47.5 123.5zM449 881q0 77 47.5 125.5t117.5 48.5t118 -48.5t48 -125.5q0 -75 -48 -123.5t-118 -48.5t-117.5 48.5t-47.5 123.5z" />
<glyph unicode=";" d="M403 -330q128 58 191.5 140t67.5 202q-12 -4 -39 -4q-69 0 -114.5 40t-45.5 114q0 72 47.5 113.5t116.5 41.5q89 0 136.5 -70t47.5 -192q0 -177 -94 -302t-266 -189zM449 881q0 77 47.5 125.5t117.5 48.5t118 -48.5t48 -125.5q0 -75 -48 -123.5t-118 -48.5t-117.5 48.5 t-47.5 123.5z" />
<glyph unicode="&#x3c;" d="M246 616v127l764 519v-162l-617 -416v-8l617 -416v-162z" />
<glyph unicode="=" d="M174 393v127h881v-127h-881zM174 831v127h881v-127h-881z" />
<glyph unicode="&#x3e;" d="M219 98v162l617 416v8l-617 416v162l764 -519v-127z" />
<glyph unicode="?" d="M223 1231q159 166 377 166q171 0 276 -87.5t105 -232.5q0 -56 -20.5 -106.5t-52.5 -88.5t-70.5 -74.5t-75.5 -72t-66.5 -73t-44 -85.5t-6.5 -102h-149q-10 60 2 113.5t39.5 94.5t63 78.5t73.5 72.5t69.5 68.5t51.5 74t20 82.5q0 88 -58 143t-167 55q-148 0 -266 -118z M436 135q0 70 43.5 113t106.5 43t106 -43t43 -113q0 -72 -43 -116t-106 -44t-106.5 44t-43.5 116z" />
<glyph unicode="@" d="M100 512q0 191 46.5 342.5t128 248t190.5 147t237 50.5q137 0 232.5 -65t139.5 -173t44 -249v-608h-102l-15 119h-8q-47 -61 -120.5 -102.5t-149.5 -41.5q-112 0 -188 74t-76 195q0 152 134.5 234.5t405.5 115.5v28q0 103 -30.5 182t-101 129t-173.5 50q-94 0 -177 -43.5 t-147.5 -126.5t-102.5 -215t-38 -297q0 -161 36.5 -292t100.5 -217t150 -132.5t186 -46.5q164 0 289 92l58 -92q-162 -113 -351 -113q-123 0 -230.5 53t-190 152.5t-130 254.5t-47.5 347zM594 453q0 -72 44.5 -113t119.5 -41q113 0 229 131v258q-210 -29 -301.5 -84.5 t-91.5 -150.5z" />
<glyph unicode="A" d="M66 0l452 1343h193l452 -1343h-180l-127 410h-487l-129 -410h-174zM412 547h401l-63 205q-94 301 -134 452h-8q-63 -229 -133 -452z" />
<glyph unicode="B" d="M203 0v1343h381q105 0 187.5 -18t144.5 -56.5t95 -102t33 -150.5q0 -105 -60 -184t-175 -109v-8q150 -24 230.5 -105t80.5 -217q0 -193 -136.5 -293t-369.5 -100h-411zM373 143h217q362 0 362 258q0 122 -90.5 178t-271.5 56h-217v-492zM373 778h182q169 0 245.5 54.5 t76.5 168.5q0 106 -77 152.5t-237 46.5h-190v-422z" />
<glyph unicode="C" d="M133 672q0 319 167.5 507.5t434.5 188.5q112 0 207 -46.5t160 -117.5l-96 -108q-116 123 -271 123q-194 0 -310 -146.5t-116 -396.5q0 -253 116 -402t310 -149q170 0 303 149l97 -104q-168 -195 -416 -195q-124 0 -231.5 48t-186 136t-123.5 220t-45 293z" />
<glyph unicode="D" d="M178 0v1343h332q302 0 462.5 -172.5t160.5 -492.5q0 -322 -160 -500t-455 -178h-340zM348 139h150q227 0 342.5 140t115.5 399q0 256 -115 391t-343 135h-150v-1065z" />
<glyph unicode="E" d="M233 0v1343h832v-143h-659v-422h557v-145h-557v-488h679v-145h-852z" />
<glyph unicode="F" d="M272 0v1343h826v-143h-654v-455h553v-143h-553v-602h-172z" />
<glyph unicode="G" d="M109 672q0 321 165.5 508.5t430.5 187.5q214 0 370 -164l-96 -108q-56 59 -120 91t-154 32q-190 0 -304 -147t-114 -396q0 -256 108.5 -403.5t304.5 -147.5q70 0 133 21.5t101 58.5v350h-268v141h426v-565q-67 -69 -172.5 -112.5t-229.5 -43.5q-258 0 -419.5 187 t-161.5 510z" />
<glyph unicode="H" d="M162 0v1343h172v-563h561v563h172v-1343h-172v633h-561v-633h-172z" />
<glyph unicode="I" d="M195 0v145h333v1055h-333v143h839v-143h-334v-1055h334v-145h-839z" />
<glyph unicode="J" d="M166 199l106 104q55 -88 131.5 -133t157.5 -45q145 0 212 76.5t67 242.5v758h-564v144h734v-916q0 -78 -14 -143.5t-47 -124t-83 -99.5t-126.5 -64.5t-174.5 -23.5q-119 0 -226 56.5t-173 167.5z" />
<glyph unicode="K" d="M201 0v1343h172v-673h6l565 673h195l-426 -509l475 -834h-193l-391 705l-231 -277v-428h-172z" />
<glyph unicode="L" d="M274 0v1343h168v-1198h666v-145h-834z" />
<glyph unicode="M" d="M147 0v1343h209l189 -573l65 -217h8l64 217l190 573h209v-1343h-163v672q0 46 3.5 116.5t7.5 124.5t9.5 133t7.5 101h-6l-76 -262l-192 -529h-123l-189 529l-77 262h-4q28 -268 28 -475v-672h-160z" />
<glyph unicode="N" d="M168 0v1343h188l430 -843l129 -279h5q-1 32 -12 188t-11 238v696h164v-1343h-189l-430 844l-129 278h-4q2 -40 12.5 -190t10.5 -230v-702h-164z" />
<glyph unicode="O" d="M98 678q0 320 142.5 505t373.5 185t373.5 -185t142.5 -505q0 -325 -142.5 -514t-373.5 -189t-373.5 189t-142.5 514zM274 678q0 -256 92.5 -404.5t247.5 -148.5t247.5 148.5t92.5 404.5q0 251 -92.5 396t-247.5 145t-247.5 -145t-92.5 -396z" />
<glyph unicode="P" d="M209 0v1343h405q115 0 203.5 -20.5t156 -66t103 -123t35.5 -185.5q0 -206 -134 -311t-364 -105h-235v-532h-170zM379 672h215q177 0 261.5 67t84.5 209t-83.5 200t-262.5 58h-215v-534z" />
<glyph unicode="Q" d="M102 678q0 322 140 507t372 185t372 -185t140 -507q0 -288 -111.5 -470.5t-301.5 -221.5q35 -86 110 -130t181 -44q50 0 100 20l33 -137q-82 -29 -152 -29q-170 0 -285 86.5t-168 229.5q-198 34 -314 218t-116 478zM276 678q0 -262 91 -411.5t247 -149.5t247 149.5 t91 411.5q0 253 -91 399t-247 146t-247 -146t-91 -399z" />
<glyph unicode="R" d="M205 0v1343h418q469 0 469 -376q0 -152 -80 -248t-221 -133l342 -586h-195l-324 567h-239v-567h-170zM375 707h223q158 0 241 65.5t83 194.5q0 128 -80.5 183.5t-243.5 55.5h-223v-499z" />
<glyph unicode="S" d="M137 174l103 119q78 -78 179.5 -123t213.5 -45q136 0 214.5 59t78.5 154q0 23 -4.5 44t-9.5 37t-19 33t-22 27t-30.5 24.5t-32.5 20.5t-39 20t-39.5 18.5l-45.5 19.5l-192 84q-291 114 -291 346q0 154 124 255t316 101q122 0 230 -45t184 -121l-90 -110 q-143 127 -330 127q-118 0 -189 -53.5t-71 -143.5q0 -27 8.5 -51t18 -41t32.5 -35.5t36.5 -28t47 -25.5t46 -21t50.5 -21l189 -82q68 -28 117.5 -57.5t92.5 -72t65 -100t22 -129.5q0 -164 -129.5 -273.5t-345.5 -109.5q-144 0 -269 52.5t-219 146.5z" />
<glyph unicode="T" d="M86 1200v143h1057v-143h-443v-1200h-172v1200h-442z" />
<glyph unicode="U" d="M162 508v835h172v-839q0 -199 75.5 -289t206.5 -90t208 90.5t77 288.5v839h166v-835q0 -275 -121 -404t-330 -129q-102 0 -183 29.5t-142.5 92t-95 166.5t-33.5 245z" />
<glyph unicode="V" d="M88 1343h180l217 -725q14 -46 57.5 -199.5t71.5 -244.5h9q44 143 129 444l215 725h174l-426 -1343h-199z" />
<glyph unicode="W" d="M20 1346h193l98 -844q22 -212 27 -312h6q32 170 66 310l131 499h164l126 -499q28 -105 66 -310h8q11 178 25 310l94 846h184l-196 -1346h-213l-131 541q-37 151 -50 241h-6q-27 -161 -47 -241l-131 -541h-209z" />
<glyph unicode="X" d="M111 0l401 694l-375 649h189l188 -344q52 -91 109 -194h8q64 134 96 194l184 344h181l-375 -657l401 -686h-188l-203 362q-22 39 -119 216h-8q-57 -120 -108 -216l-201 -362h-180z" />
<glyph unicode="Y" d="M78 1343h180l203 -399q23 -47 73.5 -151t79.5 -162h9q28 58 81 163t76 152l195 397h176l-451 -864v-479h-172v479z" />
<glyph unicode="Z" d="M133 0v102l750 1100h-684v144h895v-103l-752 -1098h762v-145h-971z" />
<glyph unicode="[" d="M461 -311v1761h567v-96h-432v-1569h432v-96h-567z" />
<glyph unicode="\" d="M203 1454h151l672 -1782h-152z" />
<glyph unicode="]" d="M201 -215h432v1569h-432v96h567v-1761h-567v96z" />
<glyph unicode="^" d="M227 582l314 790h147l313 -790h-147l-135 360l-101 272h-8l-100 -272l-135 -360h-148z" />
<glyph unicode="_" d="M123 -141h983v-146h-983v146z" />
<glyph unicode="`" d="M336 1477l119 114l290 -344l-88 -84z" />
<glyph unicode="a" d="M166 258q0 168 168 255t553 118q-3 112 -66 181t-198 69q-157 0 -349 -119l-65 115q89 59 206 101t236 42q199 0 301.5 -109.5t102.5 -300.5v-610h-137l-15 135h-6q-207 -160 -393 -160q-144 0 -241 76.5t-97 206.5zM330 270q0 -80 62.5 -119.5t156.5 -39.5 q161 0 338 147v262q-208 -17 -333 -52t-174.5 -82.5t-49.5 -115.5z" />
<glyph unicode="b" d="M190 0v1458h168v-397l-6 -193h6q68 70 157.5 111t176.5 41q198 0 306 -136t108 -370q0 -124 -37 -227t-99.5 -170.5t-143.5 -104.5t-171 -37q-72 0 -155.5 36.5t-153.5 99.5h-6l-14 -111h-136zM358 233q66 -59 138.5 -87.5t132.5 -28.5q133 0 218 107t85 288 q0 172 -68.5 269.5t-212.5 97.5q-143 0 -293 -150v-496z" />
<glyph unicode="c" d="M164 496q0 122 44.5 222.5t120.5 165.5t176.5 100.5t213.5 35.5q212 0 362 -146l-84 -108q-131 115 -272 115q-172 0 -279.5 -106.5t-107.5 -278.5q0 -170 105.5 -275.5t277.5 -105.5q161 0 307 125l76 -109q-177 -156 -395 -156q-156 0 -279 60.5t-194.5 180 t-71.5 280.5z" />
<glyph unicode="d" d="M123 496q0 118 37.5 218t100 166t144 103t170.5 37q162 0 297 -129h7l-9 184v383h168v-1458h-139l-14 131h-6q-67 -68 -152 -112t-172 -44q-198 0 -315 137.5t-117 383.5zM297 498q0 -179 77.5 -280t215.5 -101q146 0 280 149v496q-125 117 -262 117q-131 0 -221 -107 t-90 -274z" />
<glyph unicode="e" d="M139 500q0 118 42 217.5t112.5 164.5t162 101.5t191.5 36.5q213 0 334 -127t121 -340q0 -48 -8 -102h-785q15 -164 120.5 -252t266.5 -88q155 0 303 94l62 -111q-177 -119 -385 -119q-151 0 -271.5 61t-193 182t-72.5 282zM313 582h635q-10 151 -88.5 228t-208.5 77 q-127 0 -221 -81t-117 -224z" />
<glyph unicode="f" d="M211 858v127l285 10v84q0 189 100.5 296.5t300.5 107.5q147 0 287 -58l-39 -127q-106 48 -232 48q-251 0 -251 -261v-90h417v-137h-417v-858h-166v858h-285z" />
<glyph unicode="g" d="M147 -182q0 60 42.5 118t121.5 103v8q-102 56 -102 164q0 48 31.5 98t87.5 88v9q-55 41 -89 107t-34 151q0 158 114 257t277 99q80 0 147 -25h412v-137h-258q84 -88 84 -201q0 -156 -109.5 -249t-275.5 -93q-87 0 -168 37q-78 -49 -78 -114q0 -115 207 -115h223 q195 0 287 -55t92 -179q0 -144 -153.5 -246t-399.5 -102q-218 0 -338.5 72.5t-120.5 204.5zM293 -166q0 -79 84 -124.5t241 -45.5q167 0 271 59.5t104 139.5q0 68 -54 94.5t-173 26.5h-195q-94 0 -151 16q-127 -69 -127 -166zM367 664q0 -105 66.5 -170.5t162.5 -65.5 q97 0 163 65.5t66 170.5q0 103 -66 168t-163 65q-96 0 -162.5 -65.5t-66.5 -167.5z" />
<glyph unicode="h" d="M190 0v1458h168v-397l-10 -236h6q85 93 174.5 144t198.5 51q344 0 344 -402v-618h-168v596q0 143 -54 210.5t-175 67.5q-85 0 -153.5 -41.5t-162.5 -138.5v-694h-168z" />
<glyph unicode="i" d="M184 858v137h631v-995h-168v858h-463zM578 1335q0 58 38.5 94.5t96.5 36.5t96.5 -36.5t38.5 -94.5q0 -59 -38.5 -95t-96.5 -36t-96.5 36t-38.5 95z" />
<glyph unicode="j" d="M113 -377l55 125q113 -55 227 -55q142 0 197 67t55 203v895h-463v137h631v-1020q0 -97 -20.5 -170t-67 -131t-129.5 -88t-201 -30q-147 0 -284 67zM578 1335q0 58 38.5 94.5t96.5 36.5t96.5 -36.5t38.5 -94.5q0 -59 -38.5 -95t-96.5 -36t-96.5 36t-38.5 95z" />
<glyph unicode="k" d="M217 0v1458h168v-987h8l537 524h192l-397 -391l451 -604h-189l-366 502l-236 -232v-270h-168z" />
<glyph unicode="l" d="M166 1321v137h508v-1136q0 -105 51.5 -156t144.5 -51q88 0 187 45l43 -125q-76 -32 -132.5 -46t-133.5 -14q-159 0 -243.5 91.5t-84.5 267.5v987h-340z" />
<glyph unicode="m" d="M119 0v995h135l14 -131h4q42 76 94.5 116t133.5 40q145 0 188 -172q47 87 100 129.5t134 42.5q105 0 163 -79.5t58 -227.5v-713h-168v700q0 174 -107 174q-49 0 -82 -34.5t-77 -118.5v-721h-156v700q0 88 -24 131t-78 43q-51 0 -88.5 -36.5t-75.5 -116.5v-721h-168z" />
<glyph unicode="n" d="M190 0v995h140l14 -170h8q87 93 176.5 144t198.5 51q344 0 344 -402v-618h-168v596q0 143 -54 210.5t-175 67.5q-85 0 -153.5 -41.5t-162.5 -138.5v-694h-168z" />
<glyph unicode="o" d="M123 496q0 122 40 222.5t107.5 165.5t156 100.5t187.5 35.5t187.5 -35.5t156.5 -100.5t108 -165.5t40 -222.5q0 -120 -40 -220t-108 -165t-156.5 -100.5t-187.5 -35.5t-187.5 35.5t-156 100.5t-107.5 165t-40 220zM297 496q0 -170 87.5 -275.5t229.5 -105.5t230 105.5 t88 275.5q0 172 -88 278.5t-230 106.5t-229.5 -106.5t-87.5 -278.5z" />
<glyph unicode="p" d="M190 -420v1415h140l14 -127h6q72 68 163.5 110t180.5 42q198 0 305 -136t107 -372q0 -123 -37 -226t-99.5 -170t-144.5 -104t-172 -37q-71 0 -151.5 34.5t-145.5 94.5h-6l8 -188v-336h-168zM358 233q66 -59 138 -87.5t129 -28.5q136 0 221.5 106.5t85.5 288.5 q0 172 -68.5 269.5t-212.5 97.5q-143 0 -293 -150v-496z" />
<glyph unicode="q" d="M123 496q0 118 37.5 218t100 166t144 103t170.5 37q88 0 161.5 -33.5t146.5 -101.5h6l14 110h135v-1415h-168v363l9 184h-7q-66 -68 -149 -110t-170 -42q-196 0 -313 137.5t-117 383.5zM297 498q0 -179 77.5 -280t215.5 -101q146 0 280 149v496q-125 117 -262 117 q-131 0 -221 -107t-90 -274z" />
<glyph unicode="r" d="M299 0v995h139l15 -235h6q80 123 194.5 191.5t249.5 68.5q116 0 197 -41l-39 -145q-56 20 -92 27t-92 7q-247 0 -410 -284v-584h-168z" />
<glyph unicode="s" d="M145 131l78 111q191 -136 432 -136q120 0 186 44.5t66 111.5q0 31 -11 53.5t-43 46t-95 44t-162 40.5q-197 40 -293 110t-96 181q0 125 108.5 204t305.5 79q108 0 215 -36t186 -91l-82 -109q-153 105 -334 105q-119 0 -174 -40.5t-55 -103.5q0 -62 64.5 -96.5 t224.5 -68.5q164 -36 254.5 -79.5t123.5 -96t33 -132.5q0 -127 -118 -212t-324 -85q-137 0 -264 43.5t-226 112.5z" />
<glyph unicode="t" d="M141 858v127l287 10l23 320h139v-320h489v-137h-489v-473q0 -140 56 -206t196 -66q119 0 239 45l37 -123q-164 -60 -311 -60q-207 0 -296 107t-89 305v471h-281z" />
<glyph unicode="u" d="M158 377v618h170v-596q0 -144 53.5 -211t175.5 -67q84 0 154 42.5t155 141.5v690h168v-995h-137l-14 174h-9q-170 -199 -370 -199q-346 0 -346 402z" />
<glyph unicode="v" d="M104 995h170l230 -565q32 -77 112 -293h9q6 15 45 124.5t63 168.5l230 565h161l-411 -995h-189z" />
<glyph unicode="w" d="M16 995h168l119 -577q30 -155 45 -275h8q11 88 58 275l123 516h168l118 -516q6 -24 17.5 -68t18 -71t14.5 -65t12 -71h8q5 31 20 126t25 149l119 577h155l-213 -995h-217l-114 475q-29 125 -50 295h-8q-23 -180 -49 -295l-110 -475h-218z" />
<glyph unicode="x" d="M131 0l379 516l-350 479h186l158 -219q64 -97 117 -168h8q47 70 112 172l150 215h178l-354 -493l381 -502h-185l-174 229q-114 158 -131 181h-8q-82 -118 -123 -181l-164 -229h-180z" />
<glyph unicode="y" d="M100 995h170l244 -551q17 -39 37.5 -87t46 -108.5t39.5 -92.5h8q92 247 107 288l217 551h159l-438 -1077q-130 -346 -422 -346q-73 0 -131 20l35 134q51 -15 90 -15q188 0 273 213l30 74z" />
<glyph unicode="z" d="M145 0v90l682 768h-606v137h848v-90l-684 -768h702v-137h-942z" />
<glyph unicode="{" d="M246 516v107q297 2 297 159q0 63 -9.5 193.5t-9.5 202.5q0 153 89 212.5t290 59.5h125v-96h-106q-104 0 -159.5 -20t-75 -58.5t-19.5 -108.5q0 -57 6 -181t6 -189q0 -102 -41 -154t-145 -70v-8q104 -18 145 -69.5t41 -153.5q0 -71 -6 -190.5t-6 -180.5q0 -70 20 -108.5 t75 -58t159 -19.5h106v-96h-125q-201 0 -290 59.5t-89 212.5q0 77 9.5 202.5t9.5 192.5q0 158 -297 160z" />
<glyph unicode="|" d="M539 -512v2048h151v-2048h-151z" />
<glyph unicode="}" d="M203 -215h104q152 0 204 41t52 145q0 61 -6 180.5t-6 190.5q0 102 40.5 153.5t143.5 69.5v8q-103 18 -143.5 69.5t-40.5 154.5q0 65 6 189t6 181q0 104 -52 145.5t-204 41.5h-104v96h125q199 0 288 -59.5t89 -212.5q0 -72 -9.5 -202.5t-9.5 -193.5q0 -157 297 -159v-107 q-297 -2 -297 -160q0 -67 9.5 -192.5t9.5 -202.5q0 -153 -89 -212.5t-288 -59.5h-125v96z" />
<glyph unicode="~" d="M156 569q96 256 278 256q54 0 108.5 -27t91 -59t81.5 -59t84 -27q52 0 92.5 38t73.5 138l108 -49q-96 -254 -278 -254q-54 0 -108.5 27t-91 59t-81.5 59t-84 27q-52 0 -92.5 -38.5t-73.5 -137.5z" />
<glyph unicode="&#xa0;" />
<glyph unicode="&#xa1;" d="M465 862q0 70 43 114t106 44t106.5 -44t43.5 -114q0 -71 -43 -114t-107 -43t-106.5 42.5t-42.5 114.5zM532 -377l5 193l20 704h115l20 -704l4 -193h-164z" />
<glyph unicode="&#xa2;" d="M231 635q0 205 115.5 333t296.5 152v217h105v-211q150 -8 268 -118l-82 -107q-87 81 -186 86v-704q112 8 215 96l73 -107q-134 -117 -288 -129v-211h-105v213q-187 21 -299.5 149.5t-112.5 340.5zM397 635q0 -136 65 -227t181 -117v686q-115 -26 -180.5 -117t-65.5 -225z " />
<glyph unicode="&#xa3;" d="M158 584v106l202 8q-2 6 -11.5 31.5t-12 33.5t-10 30.5t-10.5 33.5t-8 30.5t-7 33t-4 30.5t-2 33q0 173 117 275t313 102q221 0 360 -153l-98 -97q-109 109 -254 109q-131 0 -203.5 -66t-72.5 -174q0 -40 10.5 -88t19.5 -76t31 -88h387v-114h-354q12 -55 12 -115 q0 -104 -35.5 -177t-111.5 -138v-9h671v-145h-927v102q124 56 189 153t65 216q0 50 -17 113h-239z" />
<glyph unicode="&#xa4;" d="M119 262l172 174q-74 99 -74 238q0 138 72 239l-170 177l90 92l178 -185q98 76 227 76q126 0 228 -76l178 185l90 -92l-172 -177q74 -99 74 -239q0 -134 -74 -238l172 -174l-90 -92l-180 182q-96 -78 -226 -78q-126 0 -227 78l-178 -182zM373 674q0 -121 69.5 -198 t171.5 -77t172 77t70 198t-70 197.5t-172 76.5t-171.5 -76.5t-69.5 -197.5z" />
<glyph unicode="&#xa5;" d="M109 1307h174l188 -351q20 -39 66.5 -131.5t74.5 -144.5h9q109 214 143 276l188 351h168l-381 -656h332v-96h-375v-133h375v-98h-375v-324h-168v324h-370v98h370v133h-370v96h329z" />
<glyph unicode="&#xa6;" d="M539 389h151v-901h-151v901zM539 635v901h151v-901h-151z" />
<glyph unicode="&#xa7;" d="M186 702q0 169 187 267q-64 71 -64 166q0 112 81 189t228 77q178 0 330 -117l-82 -108q-124 94 -239 94q-82 0 -123 -36.5t-41 -92.5q0 -39 25 -72t65.5 -55.5t92.5 -47t106.5 -46.5t106.5 -54t92.5 -68.5t65.5 -92.5t25 -123q0 -93 -47.5 -156.5t-138.5 -110.5 q62 -68 62 -165q0 -122 -92.5 -201.5t-237.5 -79.5q-111 0 -206.5 38.5t-160.5 106.5l103 92q58 -53 120 -79.5t144 -26.5q81 0 128.5 40.5t47.5 100.5q0 47 -32 84t-83 63.5t-112.5 51.5t-123 56t-112.5 69.5t-83 99t-32 137.5zM332 713q0 -51 26.5 -91.5t75.5 -70.5 t99 -52.5t117 -51.5t110 -54q70 31 103.5 70.5t33.5 105.5q0 52 -26 93.5t-75 72t-98.5 53t-117 52t-109.5 53.5q-139 -71 -139 -180z" />
<glyph unicode="&#xa8;" d="M303 1319q0 48 32 81.5t81 33.5t80.5 -33.5t31.5 -81.5q0 -50 -31.5 -82.5t-80.5 -32.5t-81 32.5t-32 82.5zM700 1319q0 48 32 81.5t81 33.5t81 -33.5t32 -81.5q0 -50 -32 -82.5t-81 -32.5t-81 32.5t-32 82.5z" />
<glyph unicode="&#xa9;" d="M61 662q0 154 42.5 281.5t116.5 213.5t175.5 133t218.5 47t218.5 -47t175.5 -133t116.5 -213.5t42.5 -281.5q0 -308 -157 -496.5t-396 -188.5t-396 188.5t-157 496.5zM156 662q0 -269 126.5 -434t331.5 -165q206 0 332.5 165.5t126.5 433.5t-126.5 429.5t-332.5 161.5 t-332 -161.5t-126 -429.5zM299 662q0 173 99.5 280t238.5 107q120 0 213 -97l-70 -80q-71 64 -137 64q-93 0 -151 -76.5t-58 -197.5q0 -134 55 -213.5t146 -79.5q83 0 166 69l61 -86q-106 -96 -231 -96q-142 0 -237 110.5t-95 295.5z" />
<glyph unicode="&#xaa;" d="M334 981q0 107 108.5 166t339.5 78q-7 153 -153 153q-103 0 -217 -69l-52 88q144 86 291 86q130 0 196 -72t66 -203v-399h-108l-8 78h-4q-121 -94 -242 -94q-94 0 -155.5 51t-61.5 137zM461 993q0 -51 34.5 -75.5t88.5 -24.5q92 0 198 82v170q-171 -17 -246 -54t-75 -98z " />
<glyph unicode="&#xab;" d="M168 434v164l313 328l80 -72l-260 -338l260 -340l-80 -70zM639 434v164l313 328l80 -72l-260 -338l260 -340l-80 -70z" />
<glyph unicode="&#xac;" d="M174 612v127h881v-526h-135v399h-746z" />
<glyph unicode="&#xad;" d="M174 612v127h881v-127h-881z" />
<glyph unicode="&#xae;" d="M229 1057q0 177 111 290t274 113q162 0 273.5 -113t111.5 -290t-112 -290.5t-273 -113.5q-163 0 -274 113.5t-111 290.5zM309 1057q0 -145 87 -236.5t218 -91.5t217.5 91.5t86.5 236.5q0 144 -87 236.5t-217 92.5t-217.5 -93t-87.5 -236zM465 854v416h156q71 0 116 -32 t45 -101q0 -37 -21.5 -69t-55.5 -44l94 -170h-94l-72 143h-84v-143h-84zM549 1063h53q42 0 66 18.5t24 51.5q0 67 -86 67h-57v-137z" />
<glyph unicode="&#xaf;" d="M342 1231v117h545v-117h-545z" />
<glyph unicode="&#xb0;" d="M358 1139q0 118 75 191t181 73q107 0 182.5 -73t75.5 -191q0 -115 -76 -187.5t-182 -72.5t-181 72.5t-75 187.5zM461 1139q0 -72 43 -119t110 -47q69 0 112.5 47t43.5 119q0 75 -43.5 122.5t-112.5 47.5q-68 0 -110.5 -47.5t-42.5 -122.5z" />
<glyph unicode="&#xb1;" d="M174 0v127h881v-127h-881zM174 623v127h373v389h135v-389h373v-127h-373v-363h-135v363h-373z" />
<glyph unicode="&#xb2;" d="M299 1477q46 71 124 113t165 42q131 0 208.5 -67.5t77.5 -192.5q0 -25 -4.5 -49t-16.5 -49.5t-22.5 -45.5t-33.5 -48t-38.5 -46t-48.5 -50t-51 -49.5t-59.5 -56t-62.5 -58.5h376v-111h-581l-8 76q17 14 50 42q208 177 270 243q99 105 99 184q0 77 -47.5 122.5 t-126.5 45.5q-55 0 -105 -32t-87 -85z" />
<glyph unicode="&#xb3;" d="M291 940l86 68q38 -58 96.5 -88.5t126.5 -30.5q77 0 128.5 38t51.5 103q0 144 -268 144v81q117 0 177.5 40.5t60.5 105.5q0 57 -44.5 92t-119.5 35q-50 0 -99.5 -26.5t-85.5 -71.5l-77 69q111 133 280 133q116 0 196.5 -59t80.5 -156q0 -71 -39.5 -118t-122.5 -78 q89 -18 140.5 -69t51.5 -128q0 -108 -87.5 -174t-215.5 -66q-102 0 -186 42.5t-131 113.5z" />
<glyph unicode="&#xb4;" d="M483 1247l291 344l119 -114l-322 -314z" />
<glyph unicode="&#xb5;" d="M172 -383v1378h168v-596q0 -139 51 -208.5t160 -69.5q87 0 159 44.5t144 170.5v659h170q-12 -536 -12 -807q0 -73 57 -73q19 0 37 4l22 -127q-39 -17 -96 -17q-80 0 -119 48t-45 165h-4q-121 -208 -315 -208q-75 0 -129.5 23.5t-91.5 84.5q3 -322 14 -471h-170z" />
<glyph unicode="&#xb6;" d="M147 907q0 117 36 203t102.5 136t151.5 73.5t192 23.5h88v-880h-66q-111 0 -201.5 26.5t-159 79.5t-106 139t-37.5 199zM827 -164v1507h166v-1507h-166z" />
<glyph unicode="&#xb7;" d="M449 711q0 77 47.5 125.5t117.5 48.5t118 -48.5t48 -125.5q0 -75 -48 -123.5t-118 -48.5t-117.5 48.5t-47.5 123.5z" />
<glyph unicode="&#xb8;" d="M420 -381q125 9 174 32.5t49 69.5q0 41 -36 64t-122 35l82 196h111l-53 -147q75 -18 112 -51.5t37 -93.5q0 -171 -338 -187z" />
<glyph unicode="&#xb9;" d="M358 809v111h252v520h-215v84q86 12 139.5 30.5t100.5 53.5h106v-688h234v-111h-617z" />
<glyph unicode="&#xba;" d="M291 1137q0 159 94 252.5t229 93.5q137 0 230.5 -93t93.5 -253q0 -157 -94 -250.5t-230 -93.5q-135 0 -229 93.5t-94 250.5zM426 1137q0 -107 50.5 -172.5t137.5 -65.5t138 65.5t51 172.5q0 108 -51 173.5t-138 65.5t-137.5 -65.5t-50.5 -173.5z" />
<glyph unicode="&#xbb;" d="M197 176l260 340l-260 338l79 72l314 -328v-164l-314 -328zM668 176l260 340l-260 338l80 72l313 -328v-164l-313 -328z" />
<glyph unicode="&#xbc;" d="M57 158l375 385l68 -62l-342 -415zM137 1153v86q106 16 195 68h102v-625h-129v471h-168zM627 152v63l231 434l94 -41l-198 -370h204v198h117v-198h103v-86h-103v-152h-117v152h-331zM729 862l342 416l100 -92l-374 -385z" />
<glyph unicode="&#xbd;" d="M57 158l375 385l68 -62l-342 -415zM137 1153v86q106 16 195 68h102v-625h-129v471h-168zM643 524q106 125 242 125q111 0 174 -55t63 -156q0 -49 -35 -104.5t-70.5 -91t-117.5 -110.5l-8 -8t-8 -7t-9 -8h279v-109h-489v74q181 137 255 211t74 137q0 56 -32.5 88.5 t-90.5 32.5q-81 0 -147 -86zM729 862l342 416l100 -92l-374 -385z" />
<glyph unicode="&#xbe;" d="M63 768l66 80q32 -38 82 -63t104 -25q59 0 93 23.5t34 72.5q0 105 -196 105v77q82 0 124 28t42 77q0 41 -28 64.5t-85 23.5q-36 0 -77 -19.5t-72 -50.5l-62 78q39 42 102.5 67t133.5 25q97 0 157 -46t60 -126q0 -58 -27.5 -94.5t-87.5 -58.5q68 -15 106.5 -55.5 t38.5 -102.5q0 -88 -70 -139.5t-177 -51.5q-71 0 -140.5 29.5t-120.5 81.5zM109 158l374 385l68 -62l-342 -415zM627 152v63l231 434l94 -41l-198 -370h204v198h117v-198h103v-86h-103v-152h-117v152h-331zM780 862l342 416l101 -92l-375 -385z" />
<glyph unicode="&#xbf;" d="M248 -82q0 56 20.5 106.5t52.5 88.5t70.5 74.5t75.5 72t66.5 73t44 85.5t6.5 102h149q10 -60 -2 -113.5t-39.5 -94.5t-63 -78.5t-73.5 -72t-69.5 -68t-51.5 -74t-20 -82.5q0 -88 58 -142.5t167 -54.5q149 0 266 117l101 -93q-158 -165 -377 -165q-171 0 -276 87t-105 232 zM494 862q0 70 43 114t106 44t106.5 -44t43.5 -114q0 -71 -43 -114t-107 -43q-63 0 -106 42.5t-43 114.5z" />
<glyph unicode="&#xc0;" d="M66 0l452 1343h193l452 -1343h-180l-127 410h-487l-129 -410h-174zM362 1663l97 113l289 -263l-74 -86zM412 547h401l-63 205q-94 301 -134 452h-8q-63 -229 -133 -452z" />
<glyph unicode="&#xc1;" d="M66 0l452 1343h193l452 -1343h-180l-127 410h-487l-129 -410h-174zM412 547h401l-63 205q-94 301 -134 452h-8q-63 -229 -133 -452zM481 1513l289 263l96 -113l-311 -236z" />
<glyph unicode="&#xc2;" d="M66 0l452 1343h193l452 -1343h-180l-127 410h-487l-129 -410h-174zM311 1485l215 231h176l216 -231l-74 -53l-226 190h-8l-225 -190zM412 547h401l-63 205q-94 301 -134 452h-8q-63 -229 -133 -452z" />
<glyph unicode="&#xc3;" d="M66 0l452 1343h193l452 -1343h-180l-127 410h-487l-129 -410h-174zM252 1470q6 117 61.5 184.5t147.5 67.5q52 0 98.5 -22.5t75 -50t63.5 -50t66 -22.5q39 0 65 35t33 100l115 -8q-6 -118 -61.5 -185t-147.5 -67q-52 0 -98.5 22.5t-75 50t-63.5 50t-66 22.5 q-39 0 -65.5 -35t-32.5 -100zM412 547h401l-63 205q-94 301 -134 452h-8q-63 -229 -133 -452z" />
<glyph unicode="&#xc4;" d="M66 0l452 1343h193l452 -1343h-180l-127 410h-487l-129 -410h-174zM324 1569q0 45 29.5 73.5t74.5 28.5t73.5 -28.5t28.5 -73.5q0 -46 -29 -75.5t-73 -29.5t-74 30t-30 75zM412 547h401l-63 205q-94 301 -134 452h-8q-63 -229 -133 -452zM698 1569q0 45 29 73.5t74 28.5 t74.5 -28.5t29.5 -73.5t-29.5 -75t-74.5 -30q-44 0 -73.5 29.5t-29.5 75.5z" />
<glyph unicode="&#xc5;" d="M66 0l452 1343h193l452 -1343h-180l-127 410h-487l-129 -410h-174zM412 547h401l-63 205q-94 301 -134 452h-8q-63 -229 -133 -452zM416 1616q0 84 55.5 135t142.5 51q86 0 142.5 -51.5t56.5 -134.5q0 -82 -56.5 -133t-142.5 -51q-87 0 -142.5 50.5t-55.5 133.5z M508 1616q0 -52 30 -81.5t76 -29.5q44 0 74.5 29.5t30.5 81.5q0 50 -31 80t-74 30q-46 0 -76 -29.5t-30 -80.5z" />
<glyph unicode="&#xc6;" d="M-2 0l541 1343h653v-143h-387v-420h301v-145h-301v-490h405v-145h-561v391h-323l-150 -391h-178zM379 528h270v680h-6q-29 -78 -87 -223.5t-83 -212.5z" />
<glyph unicode="&#xc7;" d="M133 672q0 319 167.5 507.5t434.5 188.5q112 0 207 -46.5t160 -117.5l-96 -108q-116 123 -271 123q-194 0 -310 -146.5t-116 -396.5q0 -253 116 -402t310 -149q170 0 303 149l97 -104q-149 -176 -369 -193l-39 -108q75 -18 112.5 -51.5t37.5 -93.5q0 -171 -338 -187 l-17 82q125 9 174 32.5t49 69.5q0 41 -35.5 64t-121.5 35l65 160q-231 24 -375.5 208t-144.5 484z" />
<glyph unicode="&#xc8;" d="M233 0v1343h832v-143h-659v-422h557v-145h-557v-488h679v-145h-852zM426 1663l96 113l289 -263l-74 -86z" />
<glyph unicode="&#xc9;" d="M233 0v1343h832v-143h-659v-422h557v-145h-557v-488h679v-145h-852zM545 1513l289 263l96 -113l-312 -236z" />
<glyph unicode="&#xca;" d="M233 0v1343h832v-143h-659v-422h557v-145h-557v-488h679v-145h-852zM375 1485l215 231h176l215 -231l-74 -53l-225 190h-8l-225 -190z" />
<glyph unicode="&#xcb;" d="M233 0v1343h832v-143h-659v-422h557v-145h-557v-488h679v-145h-852zM387 1569q0 45 30 73.5t75 28.5t73.5 -28.5t28.5 -73.5q0 -46 -29 -75.5t-73 -29.5q-45 0 -75 30t-30 75zM762 1569q0 45 28.5 73.5t73.5 28.5t75 -28.5t30 -73.5t-30 -75t-75 -30q-44 0 -73 29.5 t-29 75.5z" />
<glyph unicode="&#xcc;" d="M195 0v145h333v1055h-333v143h839v-143h-334v-1055h334v-145h-839zM362 1663l97 113l289 -263l-74 -86z" />
<glyph unicode="&#xcd;" d="M195 0v145h333v1055h-333v143h839v-143h-334v-1055h334v-145h-839zM481 1513l289 263l96 -113l-311 -236z" />
<glyph unicode="&#xce;" d="M195 0v145h333v1055h-333v143h839v-143h-334v-1055h334v-145h-839zM311 1485l215 231h176l216 -231l-74 -53l-226 190h-8l-225 -190z" />
<glyph unicode="&#xcf;" d="M195 0v145h333v1055h-333v143h839v-143h-334v-1055h334v-145h-839zM324 1569q0 45 29.5 73.5t74.5 28.5t73.5 -28.5t28.5 -73.5q0 -46 -29 -75.5t-73 -29.5t-74 30t-30 75zM698 1569q0 45 29 73.5t74 28.5t74.5 -28.5t29.5 -73.5t-29.5 -75t-74.5 -30q-44 0 -73.5 29.5 t-29.5 75.5z" />
<glyph unicode="&#xd0;" d="M25 643v115l153 12v573h332q302 0 462.5 -172.5t160.5 -492.5q0 -322 -160 -500t-455 -178h-340v643h-153zM348 139h150q226 0 341 140t115 399q0 256 -114.5 391t-341.5 135h-150v-434h295v-127h-295v-504z" />
<glyph unicode="&#xd1;" d="M168 0v1343h188l430 -843l129 -279h5q-1 32 -12 188t-11 238v696h164v-1343h-189l-430 844l-129 278h-4q2 -40 12.5 -190t10.5 -230v-702h-164zM272 1470q6 117 61.5 184.5t147.5 67.5q52 0 98.5 -22.5t75 -50t63.5 -50t66 -22.5q39 0 65.5 35t33.5 100l114 -8 q-6 -118 -61.5 -185t-147.5 -67q-52 0 -98.5 22.5t-75 50t-63.5 50t-66 22.5q-39 0 -65.5 -35t-32.5 -100z" />
<glyph unicode="&#xd2;" d="M98 678q0 320 142.5 505t373.5 185t373.5 -185t142.5 -505q0 -325 -142.5 -514t-373.5 -189t-373.5 189t-142.5 514zM274 678q0 -256 92.5 -404.5t247.5 -148.5t247.5 148.5t92.5 404.5q0 251 -92.5 396t-247.5 145t-247.5 -145t-92.5 -396zM362 1663l97 113l289 -263 l-74 -86z" />
<glyph unicode="&#xd3;" d="M98 678q0 320 142.5 505t373.5 185t373.5 -185t142.5 -505q0 -325 -142.5 -514t-373.5 -189t-373.5 189t-142.5 514zM274 678q0 -256 92.5 -404.5t247.5 -148.5t247.5 148.5t92.5 404.5q0 251 -92.5 396t-247.5 145t-247.5 -145t-92.5 -396zM481 1513l289 263l96 -113 l-311 -236z" />
<glyph unicode="&#xd4;" d="M98 678q0 320 142.5 505t373.5 185t373.5 -185t142.5 -505q0 -325 -142.5 -514t-373.5 -189t-373.5 189t-142.5 514zM274 678q0 -256 92.5 -404.5t247.5 -148.5t247.5 148.5t92.5 404.5q0 251 -92.5 396t-247.5 145t-247.5 -145t-92.5 -396zM311 1485l215 231h176 l216 -231l-74 -53l-226 190h-8l-225 -190z" />
<glyph unicode="&#xd5;" d="M98 678q0 320 142.5 505t373.5 185t373.5 -185t142.5 -505q0 -325 -142.5 -514t-373.5 -189t-373.5 189t-142.5 514zM252 1470q6 117 61.5 184.5t147.5 67.5q52 0 98.5 -22.5t75 -50t63.5 -50t66 -22.5q39 0 65 35t33 100l115 -8q-6 -118 -61.5 -185t-147.5 -67 q-52 0 -98.5 22.5t-75 50t-63.5 50t-66 22.5q-39 0 -65.5 -35t-32.5 -100zM274 678q0 -256 92.5 -404.5t247.5 -148.5t247.5 148.5t92.5 404.5q0 251 -92.5 396t-247.5 145t-247.5 -145t-92.5 -396z" />
<glyph unicode="&#xd6;" d="M98 678q0 320 142.5 505t373.5 185t373.5 -185t142.5 -505q0 -325 -142.5 -514t-373.5 -189t-373.5 189t-142.5 514zM274 678q0 -256 92.5 -404.5t247.5 -148.5t247.5 148.5t92.5 404.5q0 251 -92.5 396t-247.5 145t-247.5 -145t-92.5 -396zM324 1569q0 45 29.5 73.5 t74.5 28.5t73.5 -28.5t28.5 -73.5q0 -46 -29 -75.5t-73 -29.5t-74 30t-30 75zM698 1569q0 45 29 73.5t74 28.5t74.5 -28.5t29.5 -73.5t-29.5 -75t-74.5 -30q-44 0 -73.5 29.5t-29.5 75.5z" />
<glyph unicode="&#xd7;" d="M209 350l315 326l-315 323l90 93l315 -326l316 326l90 -93l-315 -323l315 -326l-90 -92l-316 328l-315 -328z" />
<glyph unicode="&#xd8;" d="M74 8l137 201q-113 184 -113 469q0 320 142.5 505t373.5 185q180 0 312 -117l106 158l115 -74l-131 -192q114 -177 114 -465q0 -325 -142.5 -514t-373.5 -189q-183 0 -315 123l-111 -164zM274 678q0 -177 48 -307l509 745q-89 103 -217 103q-155 0 -247.5 -145 t-92.5 -396zM393 236q88 -111 221 -111q155 0 247.5 148.5t92.5 404.5q0 183 -49 305z" />
<glyph unicode="&#xd9;" d="M162 508v835h172v-839q0 -199 75.5 -289t206.5 -90t208 90.5t77 288.5v839h166v-835q0 -275 -121 -404t-330 -129q-102 0 -183 29.5t-142.5 92t-95 166.5t-33.5 245zM362 1663l97 113l289 -263l-74 -86z" />
<glyph unicode="&#xda;" d="M162 508v835h172v-839q0 -199 75.5 -289t206.5 -90t208 90.5t77 288.5v839h166v-835q0 -275 -121 -404t-330 -129q-102 0 -183 29.5t-142.5 92t-95 166.5t-33.5 245zM481 1513l289 263l96 -113l-311 -236z" />
<glyph unicode="&#xdb;" d="M162 508v835h172v-839q0 -199 75.5 -289t206.5 -90t208 90.5t77 288.5v839h166v-835q0 -275 -121 -404t-330 -129q-102 0 -183 29.5t-142.5 92t-95 166.5t-33.5 245zM311 1485l215 231h176l216 -231l-74 -53l-226 190h-8l-225 -190z" />
<glyph unicode="&#xdc;" d="M162 508v835h172v-839q0 -199 75.5 -289t206.5 -90t208 90.5t77 288.5v839h166v-835q0 -275 -121 -404t-330 -129q-102 0 -183 29.5t-142.5 92t-95 166.5t-33.5 245zM324 1569q0 45 29.5 73.5t74.5 28.5t73.5 -28.5t28.5 -73.5q0 -46 -29 -75.5t-73 -29.5t-74 30t-30 75z M698 1569q0 45 29 73.5t74 28.5t74.5 -28.5t29.5 -73.5t-29.5 -75t-74.5 -30q-44 0 -73.5 29.5t-29.5 75.5z" />
<glyph unicode="&#xdd;" d="M78 1343h180l203 -399q23 -47 73.5 -151t79.5 -162h9q28 58 81 163t76 152l195 397h176l-451 -864v-479h-172v479zM481 1513l289 263l96 -113l-311 -236z" />
<glyph unicode="&#xde;" d="M207 0v1343h172v-225h242q115 0 203 -21t155 -66.5t102 -123t35 -184.5q0 -207 -133 -311.5t-362 -104.5h-242v-307h-172zM379 446h219q178 0 263 66.5t85 210.5q0 140 -84 198t-264 58h-219v-533z" />
<glyph unicode="&#xdf;" d="M180 0v1063q0 191 111 305.5t301 114.5q156 0 246 -87.5t90 -215.5q0 -57 -19 -107.5t-46 -87t-54.5 -70.5t-46.5 -72.5t-19 -76.5q0 -40 22.5 -72t59 -55t80.5 -45t88 -49t80.5 -60.5t59 -85.5t22.5 -118q0 -132 -92 -219t-242 -87q-155 0 -295 93l68 118 q115 -80 223 -80q83 0 130.5 46.5t47.5 113.5q0 48 -23 86t-59 63.5t-80.5 48.5t-88.5 48t-80 54.5t-59 75t-23 103.5q0 62 29 120t63 96.5t63 94t29 113.5q0 78 -47 127.5t-129 49.5q-114 0 -178 -79t-64 -229v-1038h-168z" />
<glyph unicode="&#xe0;" d="M166 258q0 168 168 255t553 118q-3 112 -66 181t-198 69q-157 0 -349 -119l-65 115q89 59 206 101t236 42q199 0 301.5 -109.5t102.5 -300.5v-610h-137l-15 135h-6q-207 -160 -393 -160q-144 0 -241 76.5t-97 206.5zM330 270q0 -80 62.5 -119.5t156.5 -39.5 q161 0 338 147v262q-208 -17 -333 -52t-174.5 -82.5t-49.5 -115.5zM377 1477l119 114l290 -344l-88 -84z" />
<glyph unicode="&#xe1;" d="M166 258q0 168 168 255t553 118q-3 112 -66 181t-198 69q-157 0 -349 -119l-65 115q89 59 206 101t236 42q199 0 301.5 -109.5t102.5 -300.5v-610h-137l-15 135h-6q-207 -160 -393 -160q-144 0 -241 76.5t-97 206.5zM330 270q0 -80 62.5 -119.5t156.5 -39.5 q161 0 338 147v262q-208 -17 -333 -52t-174.5 -82.5t-49.5 -115.5zM524 1247l291 344l119 -114l-322 -314z" />
<glyph unicode="&#xe2;" d="M166 258q0 168 168 255t553 118q-3 112 -66 181t-198 69q-157 0 -349 -119l-65 115q89 59 206 101t236 42q199 0 301.5 -109.5t102.5 -300.5v-610h-137l-15 135h-6q-207 -160 -393 -160q-144 0 -241 76.5t-97 206.5zM330 270q0 -80 62.5 -119.5t156.5 -39.5 q161 0 338 147v262q-208 -17 -333 -52t-174.5 -82.5t-49.5 -115.5zM338 1229l233 287h168l234 -287l-72 -66l-242 232h-8l-241 -232z" />
<glyph unicode="&#xe3;" d="M166 258q0 168 168 255t553 118q-3 112 -66 181t-198 69q-157 0 -349 -119l-65 115q89 59 206 101t236 42q199 0 301.5 -109.5t102.5 -300.5v-610h-137l-15 135h-6q-207 -160 -393 -160q-144 0 -241 76.5t-97 206.5zM301 1198q5 128 55.5 203.5t151.5 75.5q49 0 93.5 -27 t72.5 -59t63 -59t66 -27q42 0 65.5 43.5t28.5 117.5l113 -8q-5 -126 -55.5 -201t-151.5 -75q-40 0 -76.5 17.5t-63 43t-51 51t-50.5 43t-52 17.5q-86 0 -96 -162zM330 270q0 -80 62.5 -119.5t156.5 -39.5q161 0 338 147v262q-208 -17 -333 -52t-174.5 -82.5t-49.5 -115.5z " />
<glyph unicode="&#xe4;" d="M166 258q0 168 168 255t553 118q-3 112 -66 181t-198 69q-157 0 -349 -119l-65 115q89 59 206 101t236 42q199 0 301.5 -109.5t102.5 -300.5v-610h-137l-15 135h-6q-207 -160 -393 -160q-144 0 -241 76.5t-97 206.5zM330 270q0 -80 62.5 -119.5t156.5 -39.5 q161 0 338 147v262q-208 -17 -333 -52t-174.5 -82.5t-49.5 -115.5zM344 1319q0 48 32 81.5t81 33.5t80.5 -33.5t31.5 -81.5q0 -50 -31.5 -82.5t-80.5 -32.5t-81 32.5t-32 82.5zM741 1319q0 48 32 81.5t81 33.5t81 -33.5t32 -81.5q0 -50 -32 -82.5t-81 -32.5t-81 32.5 t-32 82.5z" />
<glyph unicode="&#xe5;" d="M166 258q0 168 168 255t553 118q-3 112 -66 181t-198 69q-157 0 -349 -119l-65 115q89 59 206 101t236 42q199 0 301.5 -109.5t102.5 -300.5v-610h-137l-15 135h-6q-207 -160 -393 -160q-144 0 -241 76.5t-97 206.5zM330 270q0 -80 62.5 -119.5t156.5 -39.5 q161 0 338 147v262q-208 -17 -333 -52t-174.5 -82.5t-49.5 -115.5zM430 1362q0 86 61 141.5t164 55.5t164.5 -56t61.5 -141t-61.5 -141t-164.5 -56t-164 55.5t-61 141.5zM539 1362q0 -51 33.5 -86t82.5 -35t83 35t34 86q0 52 -33.5 86.5t-83.5 34.5t-83 -34.5t-33 -86.5z " />
<glyph unicode="&#xe6;" d="M35 246q0 155 122 247t388 125q-8 263 -180 263q-114 0 -234 -82l-63 114q166 107 311 107q186 0 252 -205q49 104 124 154.5t163 50.5q100 0 170.5 -64t102.5 -164.5t32 -226.5q0 -35 -9 -114h-534q8 -159 74 -248.5t182 -89.5q101 0 194 65l62 -115q-122 -88 -262 -88 q-202 0 -307 179q-152 -179 -326 -179q-116 0 -189 73.5t-73 197.5zM190 262q0 -71 41.5 -111t110.5 -40q58 0 121.5 36.5t116.5 104.5q-35 110 -35 244v14q-197 -29 -276 -90t-79 -158zM682 582h403q-9 305 -178 305q-85 0 -148 -75t-77 -230z" />
<glyph unicode="&#xe7;" d="M164 496q0 122 44.5 222.5t120.5 165.5t176.5 100.5t213.5 35.5q212 0 362 -146l-84 -108q-131 115 -272 115q-172 0 -279.5 -106.5t-107.5 -278.5q0 -170 105.5 -275.5t277.5 -105.5q161 0 307 125l76 -109q-151 -136 -346 -154l-39 -108q75 -18 112 -51.5t37 -93.5 q0 -171 -338 -187l-16 82q125 9 174 32.5t49 69.5q0 41 -35.5 64t-121.5 35l65 157q-215 19 -348 156.5t-133 362.5z" />
<glyph unicode="&#xe8;" d="M139 500q0 118 42 217.5t112.5 164.5t162 101.5t191.5 36.5q213 0 334 -127t121 -340q0 -48 -8 -102h-785q15 -164 120.5 -252t266.5 -88q155 0 303 94l62 -111q-177 -119 -385 -119q-151 0 -271.5 61t-193 182t-72.5 282zM313 582h635q-10 151 -88.5 228t-208.5 77 q-127 0 -221 -81t-117 -224zM369 1477l118 114l291 -344l-88 -84z" />
<glyph unicode="&#xe9;" d="M139 500q0 118 42 217.5t112.5 164.5t162 101.5t191.5 36.5q213 0 334 -127t121 -340q0 -48 -8 -102h-785q15 -164 120.5 -252t266.5 -88q155 0 303 94l62 -111q-177 -119 -385 -119q-151 0 -271.5 61t-193 182t-72.5 282zM313 582h635q-10 151 -88.5 228t-208.5 77 q-127 0 -221 -81t-117 -224zM516 1247l291 344l119 -114l-322 -314z" />
<glyph unicode="&#xea;" d="M139 500q0 118 42 217.5t112.5 164.5t162 101.5t191.5 36.5q213 0 334 -127t121 -340q0 -48 -8 -102h-785q15 -164 120.5 -252t266.5 -88q155 0 303 94l62 -111q-177 -119 -385 -119q-151 0 -271.5 61t-193 182t-72.5 282zM313 582h635q-10 151 -88.5 228t-208.5 77 q-127 0 -221 -81t-117 -224zM330 1229l233 287h168l234 -287l-72 -66l-242 232h-8l-242 -232z" />
<glyph unicode="&#xeb;" d="M139 500q0 118 42 217.5t112.5 164.5t162 101.5t191.5 36.5q213 0 334 -127t121 -340q0 -48 -8 -102h-785q15 -164 120.5 -252t266.5 -88q155 0 303 94l62 -111q-177 -119 -385 -119q-151 0 -271.5 61t-193 182t-72.5 282zM313 582h635q-10 151 -88.5 228t-208.5 77 q-127 0 -221 -81t-117 -224zM336 1319q0 48 32 81.5t81 33.5t80.5 -33.5t31.5 -81.5q0 -50 -31.5 -82.5t-80.5 -32.5t-81 32.5t-32 82.5zM733 1319q0 48 32 81.5t81 33.5t80.5 -33.5t31.5 -81.5q0 -50 -31.5 -82.5t-80.5 -32.5t-81 32.5t-32 82.5z" />
<glyph unicode="&#xec;" d="M184 858v137h631v-995h-168v858h-463zM434 1477l119 114l291 -344l-88 -84z" />
<glyph unicode="&#xed;" d="M184 858v137h631v-995h-168v858h-463zM582 1247l290 344l119 -114l-321 -314z" />
<glyph unicode="&#xee;" d="M184 858v137h631v-995h-168v858h-463zM395 1229l234 287h168l233 -287l-72 -66l-241 232h-8l-242 -232z" />
<glyph unicode="&#xef;" d="M184 858v137h631v-995h-168v858h-463zM401 1319q0 48 32 81.5t81 33.5t81 -33.5t32 -81.5q0 -50 -32 -82.5t-81 -32.5t-81 32.5t-32 82.5zM799 1319q0 48 31.5 81.5t80.5 33.5t81 -33.5t32 -81.5q0 -50 -32 -82.5t-81 -32.5t-80.5 32.5t-31.5 82.5z" />
<glyph unicode="&#xf0;" d="M123 455q0 207 131 333.5t336 126.5q95 0 181.5 -43.5t143.5 -119.5q-53 257 -235 419l-311 -159l-62 106l266 135q-93 65 -235 136l78 106q179 -84 295 -172l280 143l62 -102l-242 -125q287 -277 287 -713q0 -248 -132.5 -399.5t-355.5 -151.5q-130 0 -240 57 t-178.5 168t-68.5 255zM281 455q0 -150 96.5 -245t236.5 -95q158 0 240 110t82 295q0 61 -2 90q-132 174 -320 174q-159 0 -246 -91.5t-87 -237.5z" />
<glyph unicode="&#xf1;" d="M190 0v995h140l14 -170h8q87 93 176.5 144t198.5 51q344 0 344 -402v-618h-168v596q0 143 -54 210.5t-175 67.5q-85 0 -153.5 -41.5t-162.5 -138.5v-694h-168zM297 1198q5 128 55.5 203.5t151.5 75.5q49 0 93.5 -27t72.5 -59t63 -59t66 -27q42 0 65.5 43.5t28.5 117.5 l113 -8q-5 -126 -55.5 -201t-151.5 -75q-40 0 -76.5 17.5t-63 43t-51 51t-50.5 43t-52 17.5q-86 0 -96 -162z" />
<glyph unicode="&#xf2;" d="M123 496q0 122 40 222.5t107.5 165.5t156 100.5t187.5 35.5t187.5 -35.5t156.5 -100.5t108 -165.5t40 -222.5q0 -120 -40 -220t-108 -165t-156.5 -100.5t-187.5 -35.5t-187.5 35.5t-156 100.5t-107.5 165t-40 220zM297 496q0 -170 87.5 -275.5t229.5 -105.5t230 105.5 t88 275.5q0 172 -88 278.5t-230 106.5t-229.5 -106.5t-87.5 -278.5zM336 1477l119 114l290 -344l-88 -84z" />
<glyph unicode="&#xf3;" d="M123 496q0 122 40 222.5t107.5 165.5t156 100.5t187.5 35.5t187.5 -35.5t156.5 -100.5t108 -165.5t40 -222.5q0 -120 -40 -220t-108 -165t-156.5 -100.5t-187.5 -35.5t-187.5 35.5t-156 100.5t-107.5 165t-40 220zM297 496q0 -170 87.5 -275.5t229.5 -105.5t230 105.5 t88 275.5q0 172 -88 278.5t-230 106.5t-229.5 -106.5t-87.5 -278.5zM483 1247l291 344l119 -114l-322 -314z" />
<glyph unicode="&#xf4;" d="M123 496q0 122 40 222.5t107.5 165.5t156 100.5t187.5 35.5t187.5 -35.5t156.5 -100.5t108 -165.5t40 -222.5q0 -120 -40 -220t-108 -165t-156.5 -100.5t-187.5 -35.5t-187.5 35.5t-156 100.5t-107.5 165t-40 220zM297 496q0 -170 87.5 -275.5t229.5 -105.5t230 105.5 t88 275.5q0 172 -88 278.5t-230 106.5t-229.5 -106.5t-87.5 -278.5zM297 1229l233 287h168l234 -287l-72 -66l-242 232h-8l-241 -232z" />
<glyph unicode="&#xf5;" d="M123 496q0 122 40 222.5t107.5 165.5t156 100.5t187.5 35.5t187.5 -35.5t156.5 -100.5t108 -165.5t40 -222.5q0 -120 -40 -220t-108 -165t-156.5 -100.5t-187.5 -35.5t-187.5 35.5t-156 100.5t-107.5 165t-40 220zM260 1198q5 128 55.5 203.5t151.5 75.5q49 0 93.5 -27 t72.5 -59t63 -59t66 -27q42 0 65.5 43.5t28.5 117.5l113 -8q-5 -126 -55.5 -201t-151.5 -75q-40 0 -76.5 17.5t-63 43t-51 51t-50.5 43t-52 17.5q-86 0 -96 -162zM297 496q0 -170 87.5 -275.5t229.5 -105.5t230 105.5t88 275.5q0 172 -88 278.5t-230 106.5t-229.5 -106.5 t-87.5 -278.5z" />
<glyph unicode="&#xf6;" d="M123 496q0 122 40 222.5t107.5 165.5t156 100.5t187.5 35.5t187.5 -35.5t156.5 -100.5t108 -165.5t40 -222.5q0 -120 -40 -220t-108 -165t-156.5 -100.5t-187.5 -35.5t-187.5 35.5t-156 100.5t-107.5 165t-40 220zM297 496q0 -170 87.5 -275.5t229.5 -105.5t230 105.5 t88 275.5q0 172 -88 278.5t-230 106.5t-229.5 -106.5t-87.5 -278.5zM303 1319q0 48 32 81.5t81 33.5t80.5 -33.5t31.5 -81.5q0 -50 -31.5 -82.5t-80.5 -32.5t-81 32.5t-32 82.5zM700 1319q0 48 32 81.5t81 33.5t81 -33.5t32 -81.5q0 -50 -32 -82.5t-81 -32.5t-81 32.5 t-32 82.5z" />
<glyph unicode="&#xf7;" d="M174 612v127h881v-127h-881zM504 307q0 47 31.5 78t78.5 31t79 -31t32 -78q0 -49 -31.5 -79.5t-79.5 -30.5t-79 30.5t-31 79.5zM504 1044q0 47 31.5 78t78.5 31t79 -31t32 -78q0 -49 -31.5 -79.5t-79.5 -30.5t-79 30.5t-31 79.5z" />
<glyph unicode="&#xf8;" d="M123 496q0 122 40 222.5t107.5 165.5t156 100.5t187.5 35.5q160 0 287 -88l107 125l94 -86l-109 -127q113 -139 113 -348q0 -120 -40 -220t-108 -165t-156.5 -100.5t-187.5 -35.5q-159 0 -286 88l-107 -124l-94 86l109 127q-113 139 -113 344zM297 496q0 -125 47 -217 l459 538q-77 68 -189 68q-142 0 -229.5 -108.5t-87.5 -280.5zM424 176q81 -65 190 -65q142 0 230 107t88 278q0 130 -47 219z" />
<glyph unicode="&#xf9;" d="M158 377v618h170v-596q0 -144 53.5 -211t175.5 -67q84 0 154 42.5t155 141.5v690h168v-995h-137l-14 174h-9q-170 -199 -370 -199q-346 0 -346 402zM326 1477l118 114l291 -344l-88 -84z" />
<glyph unicode="&#xfa;" d="M158 377v618h170v-596q0 -144 53.5 -211t175.5 -67q84 0 154 42.5t155 141.5v690h168v-995h-137l-14 174h-9q-170 -199 -370 -199q-346 0 -346 402zM473 1247l291 344l119 -114l-322 -314z" />
<glyph unicode="&#xfb;" d="M158 377v618h170v-596q0 -144 53.5 -211t175.5 -67q84 0 154 42.5t155 141.5v690h168v-995h-137l-14 174h-9q-170 -199 -370 -199q-346 0 -346 402zM287 1229l233 287h168l234 -287l-72 -66l-242 232h-8l-242 -232z" />
<glyph unicode="&#xfc;" d="M158 377v618h170v-596q0 -144 53.5 -211t175.5 -67q84 0 154 42.5t155 141.5v690h168v-995h-137l-14 174h-9q-170 -199 -370 -199q-346 0 -346 402zM293 1319q0 48 32 81.5t81 33.5t80.5 -33.5t31.5 -81.5q0 -50 -31.5 -82.5t-80.5 -32.5t-81 32.5t-32 82.5zM690 1319 q0 48 32 81.5t81 33.5t80.5 -33.5t31.5 -81.5q0 -50 -31.5 -82.5t-80.5 -32.5t-81 32.5t-32 82.5z" />
<glyph unicode="&#xfd;" d="M100 995h170l244 -551q17 -39 37.5 -87t46 -108.5t39.5 -92.5h8q92 247 107 288l217 551h159l-438 -1077q-130 -346 -422 -346q-73 0 -131 20l35 134q51 -15 90 -15q188 0 273 213l30 74zM492 1247l290 344l119 -114l-321 -314z" />
<glyph unicode="&#xfe;" d="M190 -420v1878h168v-411l-6 -179h6q70 70 158 111t174 41q198 0 307 -136.5t109 -371.5q0 -123 -37.5 -226t-100.5 -170t-144.5 -104t-170.5 -37q-72 0 -151 35t-144 94h-6l6 -188v-336h-168zM358 233q66 -59 137.5 -87.5t129.5 -28.5q134 0 220.5 107t86.5 288 q0 172 -69.5 269.5t-213.5 97.5q-141 0 -291 -150v-496z" />
<glyph unicode="&#xff;" d="M100 995h170l244 -551q17 -39 37.5 -87t46 -108.5t39.5 -92.5h8q92 247 107 288l217 551h159l-438 -1077q-130 -346 -422 -346q-73 0 -131 20l35 134q51 -15 90 -15q188 0 273 213l30 74zM311 1319q0 48 32 81.5t81 33.5t81 -33.5t32 -81.5q0 -50 -32 -82.5t-81 -32.5 t-81 32.5t-32 82.5zM709 1319q0 48 31.5 81.5t80.5 33.5t81 -33.5t32 -81.5q0 -50 -32 -82.5t-81 -32.5t-80.5 32.5t-31.5 82.5z" />
<glyph unicode="&#x152;" d="M68 678q0 318 144 493t400 175h578v-144h-397v-424h303v-145h-303v-488h417v-145h-604q-254 0 -396 178.5t-142 499.5zM244 678q0 -260 87.5 -399.5t260.5 -139.5h45v1065h-45q-173 0 -260.5 -134.5t-87.5 -391.5z" />
<glyph unicode="&#x153;" d="M23 496q0 244 99.5 384t254.5 140q190 0 268 -246q39 123 112 184.5t171 61.5q95 0 163 -63.5t100 -164.5t32 -227q0 -35 -9 -114h-503q9 -165 74.5 -251.5t168.5 -86.5q83 0 176 65l62 -115q-113 -88 -244 -88q-104 0 -182.5 59.5t-118.5 180.5q-82 -240 -272 -240 q-155 0 -253.5 139.5t-98.5 381.5zM180 496q0 -174 53.5 -277.5t151.5 -103.5q89 0 143 106t54 277t-54 277t-143 106q-98 0 -151.5 -104t-53.5 -281zM713 582h372q-9 305 -172 305q-82 0 -136 -78.5t-64 -226.5z" />
<glyph unicode="&#x178;" d="M78 1343h180l203 -399q23 -47 73.5 -151t79.5 -162h9q28 58 81 163t76 152l195 397h176l-451 -864v-479h-172v479zM324 1569q0 45 29.5 73.5t74.5 28.5t73.5 -28.5t28.5 -73.5q0 -46 -29 -75.5t-73 -29.5t-74 30t-30 75zM698 1569q0 45 29 73.5t74 28.5t74.5 -28.5 t29.5 -73.5t-29.5 -75t-74.5 -30q-44 0 -73.5 29.5t-29.5 75.5z" />
<glyph unicode="&#x2c6;" d="M297 1229l233 287h168l234 -287l-72 -66l-242 232h-8l-241 -232z" />
<glyph unicode="&#x2dc;" d="M260 1198q5 128 55.5 203.5t151.5 75.5q49 0 93.5 -27t72.5 -59t63 -59t66 -27q42 0 65.5 43.5t28.5 117.5l113 -8q-5 -126 -55.5 -201t-151.5 -75q-40 0 -76.5 17.5t-63 43t-51 51t-50.5 43t-52 17.5q-86 0 -96 -162z" />
<glyph unicode="&#x2000;" horiz-adv-x="901" />
<glyph unicode="&#x2001;" horiz-adv-x="1802" />
<glyph unicode="&#x2002;" horiz-adv-x="901" />
<glyph unicode="&#x2003;" horiz-adv-x="1802" />
<glyph unicode="&#x2004;" horiz-adv-x="600" />
<glyph unicode="&#x2005;" horiz-adv-x="450" />
<glyph unicode="&#x2006;" horiz-adv-x="300" />
<glyph unicode="&#x2007;" horiz-adv-x="300" />
<glyph unicode="&#x2008;" horiz-adv-x="225" />
<glyph unicode="&#x2009;" horiz-adv-x="360" />
<glyph unicode="&#x200a;" horiz-adv-x="100" />
<glyph unicode="&#x2010;" d="M174 612v127h881v-127h-881z" />
<glyph unicode="&#x2011;" d="M174 612v127h881v-127h-881z" />
<glyph unicode="&#x2012;" d="M174 612v127h881v-127h-881z" />
<glyph unicode="&#x2013;" d="M164 442v148h901v-148h-901z" />
<glyph unicode="&#x2014;" d="M0 442v148h1229v-148h-1229z" />
<glyph unicode="&#x2018;" d="M428 963q0 153 78 275.5t217 193.5l55 -99q-199 -118 -211 -323q24 12 54 12q63 0 103 -41.5t40 -106.5q0 -70 -42.5 -113.5t-109.5 -43.5q-81 0 -132.5 66.5t-51.5 179.5z" />
<glyph unicode="&#x2019;" d="M444 815q201 114 213 324q-26 -13 -53 -13q-64 0 -104.5 40.5t-40.5 105.5q0 70 42.5 115t108.5 45q83 0 134 -66.5t51 -181.5q0 -152 -77.5 -274t-215.5 -193z" />
<glyph unicode="&#x201a;" d="M444 -365q201 114 213 324q-24 -12 -53 -12q-64 0 -104.5 40.5t-40.5 104.5q0 70 42.5 115t108.5 45q83 0 134 -66.5t51 -181.5q0 -152 -77.5 -274t-215.5 -193z" />
<glyph unicode="&#x201c;" d="M193 963q0 153 77.5 275.5t216.5 193.5l56 -99q-199 -118 -211 -323q24 12 53 12q63 0 103 -41.5t40 -106.5q0 -70 -42.5 -113.5t-108.5 -43.5q-81 0 -132.5 66.5t-51.5 179.5zM664 963q0 153 77.5 275.5t216.5 193.5l56 -99q-199 -118 -211 -323q24 12 53 12 q63 0 103 -41.5t40 -106.5q0 -70 -42.5 -113.5t-108.5 -43.5q-81 0 -132.5 66.5t-51.5 179.5z" />
<glyph unicode="&#x201d;" d="M209 815q201 114 213 324q-26 -13 -53 -13q-65 0 -105.5 41t-40.5 105q0 70 43 115t109 45q83 0 133.5 -66.5t50.5 -181.5q0 -152 -77.5 -274t-215.5 -193zM680 815q201 114 213 324q-26 -13 -53 -13q-64 0 -105 41t-41 105q0 70 43 115t109 45q83 0 133.5 -66.5 t50.5 -181.5q0 -152 -77.5 -274t-215.5 -193z" />
<glyph unicode="&#x201e;" d="M209 -365q201 114 213 324q-24 -12 -53 -12q-65 0 -105.5 40.5t-40.5 104.5q0 70 43 115t109 45q83 0 133.5 -66.5t50.5 -181.5q0 -152 -77.5 -274t-215.5 -193zM680 -365q201 114 213 324q-24 -12 -53 -12q-65 0 -105.5 40.5t-40.5 104.5q0 70 43 115t109 45 q83 0 133.5 -66.5t50.5 -181.5q0 -152 -77.5 -274t-215.5 -193z" />
<glyph unicode="&#x2022;" d="M309 537q0 132 90 216.5t215 84.5t215.5 -85t90.5 -216t-90.5 -216t-215.5 -85t-215 84.5t-90 216.5z" />
<glyph unicode="&#x2026;" d="M66 129q0 68 41 111t102 43q60 0 100.5 -43t40.5 -111q0 -67 -41 -110.5t-100 -43.5q-61 0 -102 43.5t-41 110.5zM471 129q0 68 41 111t102 43t102.5 -43t41.5 -111q0 -67 -41.5 -110.5t-102.5 -43.5t-102 43.5t-41 110.5zM879 129q0 68 40.5 111t100.5 43q61 0 102 -43 t41 -111q0 -67 -41 -110.5t-102 -43.5q-59 0 -100 43.5t-41 110.5z" />
<glyph unicode="&#x202f;" horiz-adv-x="360" />
<glyph unicode="&#x2039;" d="M403 434v164l314 328l80 -72l-260 -338l260 -340l-80 -70z" />
<glyph unicode="&#x203a;" d="M432 176l260 340l-260 338l80 72l313 -328v-164l-313 -328z" />
<glyph unicode="&#x205f;" horiz-adv-x="450" />
<glyph unicode="&#x20ac;" d="M119 483v90l121 9q-2 23 -2 69q0 45 2 68h-121v90l131 10q38 241 183 376.5t362 135.5q100 0 190.5 -44t155.5 -116l-101 -96q-118 121 -252 121q-147 0 -240.5 -99t-123.5 -278h602v-100h-612q-2 -20 -2 -62q0 -48 2 -73h530v-101h-518q30 -177 120 -274.5t230 -97.5 q85 0 152 36t131 109l100 -90q-164 -191 -393 -191q-202 0 -340 135t-176 373h-131z" />
<glyph unicode="&#x2122;" d="M-10 1274v110h516v-110h-197v-524h-123v524h-196zM598 750v634h145l93 -233l55 -164h8l53 164l90 233h146v-634h-113v280l15 215h-9l-145 -383h-86l-148 383h-8l15 -215v-280h-111z" />
<glyph unicode="&#x25fc;" horiz-adv-x="993" d="M0 0v993h993v-993h-993z" />
<glyph unicode="&#xfb01;" d="M106 858v127l136 10v158q0 157 72 243.5t218 86.5q83 0 166 -33l-34 -129q-61 25 -113 25q-141 0 -141 -193v-158h211v-137h-211v-858h-168v858h-136zM799 1335q0 58 38.5 94.5t96.5 36.5t96.5 -36.5t38.5 -94.5q0 -59 -38.5 -95t-96.5 -36t-96.5 36t-38.5 95zM848 0v995 h168v-995h-168z" />
<glyph unicode="&#xfb02;" d="M117 858v127l135 10v158q0 157 72.5 243.5t218.5 86.5q83 0 166 -33l-37 -129q-58 25 -113 25q-139 0 -139 -193v-158h211v-137h-211v-858h-168v858h-135zM821 201v1257h168v-1270q0 -37 13 -55t34 -18q19 0 37 4l23 -127q-42 -17 -97 -17q-93 0 -135.5 57t-42.5 169z " />
</font>
</defs>
</svg>
